<?xml version="1.0" standalone="no"?>
<!DOCTYPE svg PUBLIC "-//W3C//DTD SVG 1.1//EN" "http://www.w3.org/Graphics/SVG/1.1/DTD/svg11.dtd" >
<svg xmlns="http://www.w3.org/2000/svg">
<metadata>Generated by IcoMoon</metadata>
<defs>
<font id="font-netcomponents" horiz-adv-x="1024">
<font-face units-per-em="1024" ascent="877.8572825024438" descent="-146.14271749755622" />
<missing-glyph horiz-adv-x="1024" />
<glyph unicode="&#x20;" horiz-adv-x="256.25024437927664" d="" />
<glyph unicode="&#xe900;" glyph-name="clipboard-technical-data" horiz-adv-x="742" d="M142.254 345.79h86.284v-377.352h-86.284v377.352zM206.298 837.080h336.134v-164.062h-336.134v164.062zM645.086 788.115v0h-642.913v-973.085h736.149l1.078 973.199zM647.797-99.448l-555.761-0.283 0.65 801.187h278.113l274.070 1.089 2.928-267.364zM390.158 201.193h86.284v-232.755h-86.284v232.755zM512.113 101.297h86.284v-132.859h-86.284v132.859zM144.278 591.551h455.211v-83.951h-455.211v83.951zM283.294 523.226h316.194v-99.577h-316.194v99.577zM426.76 452.1h172.729v-112.402h-172.729v112.402zM262.828 276.23h86.284v-307.793h-86.284v307.793z" />
<glyph unicode="&#xe901;" glyph-name="add-part-disabled" d="M1024.823 478.602h-358.479v358.479h-305.134v-358.479h-360.612v-305.12h360.612v-360.627h305.134v360.627h358.479z" />
<glyph unicode="&#xe902;" glyph-name="authorized" horiz-adv-x="929" d="M309.671-11.504l-72.578-175.655h-237.094l309.671 684.595c0-0.071 144.402 339.63 144.402 339.63s157.66-339.701 157.66-339.63l317.225-684.595h-249.185l-78.596 175.655h-291.506zM567.947 104.333c0 0-99.691 275.389-114.898 316.016l-110.205-316.016h225.102z" />
<glyph unicode="&#xe903;" glyph-name="certifications" horiz-adv-x="1208" d="M190.165 464.405h835.682v-93.063h-835.682v93.063zM190.165 278.237h835.682v-93.091h-835.682v93.091zM190.165 92.099h835.682v-93.091h-835.682v93.091zM374.298 648.552h463.462v-93.063h-463.462v93.063zM0-141.311h1208.642v-46.488h-1208.642v46.488zM0 836.44h1208.642v-46.459h-1208.642v46.459zM0 820.35h46.53v-983.669h-46.53v983.669zM1159.166 818.886h49.475v-983.641h-49.475v983.641zM989.829 205.005l21.722-37.939 33.899 27.47 6.628-43.202 41.553 13.414-9.445-42.663 43.587-2.561-24.226-36.345 39.703-18.18-35.649-25.064 30.485-31.282-42.476-10.54 17.185-40.186-43.358 5.547 1.436-43.715-38.322 20.811-14.353-41.253-28.366 33.258-28.338-33.258-14.368 41.253-38.365-20.811 1.436 43.715-43.372-5.547 17.213 40.186-42.433 10.54 30.429 31.282-35.649 25.064 39.746 18.18-24.283 36.345 43.616 2.561-9.459 42.663 41.567-13.414 6.642 43.202 33.87-27.47z" />
<glyph unicode="&#xe904;" glyph-name="close" d="M512.127 837.080c-282.814 0-512.127-229.284-512.127-512.113 0-282.842 229.313-512.113 512.127-512.113 282.828 0 512.127 229.27 512.127 512.113 0 282.828-229.299 512.113-512.127 512.113zM512.127-149.035c-261.761 0-473.96 212.213-473.96 473.96 0 261.803 212.199 474.031 473.96 474.031 261.832 0 474.059-212.213 474.059-474.031 0-261.746-212.228-473.96-474.059-473.96zM512.212 693.148c-203.337 0-368.237-164.886-368.237-368.109 0-203.38 164.9-368.266 368.237-368.266 203.28 0 368.181 164.886 368.181 368.266 0 203.223-164.914 368.109-368.181 368.109zM722.164 172.728l-57.811-57.783-152.197 152.183-152.14-152.168-57.897 57.783 152.24 152.197-152.255 152.183 57.897 57.768 152.154-152.14 152.183 152.14 57.811-57.768-152.197-152.197 152.211-152.197z" />
<glyph unicode="&#xe905;" glyph-name="delete" horiz-adv-x="1029" d="M985.604 44.942l-281.035 279.215 280.978 279.215c55.479 55.081 58.352 142.438 6.231 194.887-52.15 52.477-139.451 50.144-195.043-4.823l-282.174-280.368-282.217 280.368c-55.55 54.967-142.836 57.3-195.015 4.823-52.108-52.448-49.262-139.821 6.231-194.887l280.95-279.215-281.021-279.215c-55.436-55.18-58.267-142.453-6.216-195.129 52.165-52.349 139.451-50.144 194.944 5.036l282.344 280.496 282.344-280.496c55.479-55.18 142.751-57.371 194.929-5.036 52.065 52.676 49.205 139.95-6.231 195.129z" />
<glyph unicode="&#xe906;" glyph-name="document-data-sheet-locator" horiz-adv-x="742" d="M185.229 651.553h93.134v-93.119h-93.134v93.119zM185.229 464.362h93.134v-93.119h-93.134v93.119zM185.229 278.864h373.401v-93.119h-373.401v93.119zM185.229 92.625h373.401v-93.119h-373.401v93.119zM555.442 744.061h93.091v-93.105h-93.091v93.105zM648.762 650.258v-93.446h-185.129v188.585h91.17v91.682h-554.803v-1024.224h741.851v837.404h-93.091zM650.624-97.127l-560.066-0.298 0.655 843.293h280.268v-280.268h279.144v-562.727z" />
<glyph unicode="&#xe907;" glyph-name="edit" horiz-adv-x="1032" d="M783.674 837.066l-670.838-672.944-112.835-351.267 359.276 111.74 672.617 666.884-248.217 245.587zM596.569 464.646l208.117 208.601 65.023-64.81-208.031-208.529-65.11 64.739z" />
<glyph unicode="&#xe908;" glyph-name="expand-collapse" horiz-adv-x="1193" d="M395.507 780.235h-338.663v-338.634h113.774v224.959h224.888zM338.677 837.066h-338.677v-338.606h113.788v224.917h224.888zM1193.506 441.602v338.634h-338.535v-113.788h224.874v-224.846zM1139.023 498.46v338.606h-338.563v-113.788h224.874v-224.817zM55.166 151.447v-338.592h338.563v113.746h-224.888v224.846zM0.669 208.263v-338.592h338.563v113.774h-224.888v224.817zM854.972-187.146h338.535v338.592h-113.774v-224.959h-224.76zM800.46-130.328h338.563v338.592h-113.774v-224.931h-224.789zM800.119-17.835h224.107v-58.239h-224.107v58.239zM114.115-17.835h224.107v-58.239h-224.107v58.239zM234.448 582.574h735.293v-509.168h-735.293v509.168z" />
<glyph unicode="&#xe909;" glyph-name="help" d="M512.113 837.080c-282.828 0-512.113-229.284-512.113-512.113s229.284-512.113 512.113-512.113c282.842 0 512.113 229.284 512.113 512.113s-229.27 512.113-512.113 512.113zM579.797-10.423h-147.645v141.343h147.63v-141.343zM731.695 410.731c-7.839-18.962-17.525-35.179-29.147-48.621s-24.482-24.936-38.537-34.384c-14.14-9.516-27.455-18.978-39.987-28.48-12.532-9.459-23.642-20.357-33.374-32.562-9.76-12.191-15.846-27.512-18.379-45.877v-34.852h-126.933v41.239c1.878 26.318 7.070 48.352 15.52 66.12 8.449 17.71 18.337 32.889 29.632 45.407 11.238 12.489 23.174 23.373 35.72 32.548 12.532 9.133 24.113 18.322 34.809 27.555 10.654 9.19 19.247 19.247 25.847 30.258s9.545 24.794 8.906 41.324c0 28.108-7.028 48.907-21.125 62.35-14.14 13.443-33.7 20.201-58.764 20.201-16.943 0-31.51-3.2-43.729-9.63-12.191-6.444-22.306-15.023-30.1-25.719-7.81-10.711-13.641-23.231-17.383-37.556-3.756-14.424-5.691-29.859-5.691-46.388h-138.214c0.641 33.073 6.429 63.275 17.355 90.83 11.025 27.555 26.36 51.424 46.090 71.596 19.758 20.201 43.587 35.89 71.454 47.242 27.924 11.309 59.15 17 93.588 17 44.539 0 81.654-5.975 111.499-17.866 29.731-11.978 53.714-26.814 71.895-44.524 18.18-17.781 31.181-36.83 39.020-57.357 7.825-20.47 11.763-39.632 11.763-57.357 0.028-29.333-3.927-53.515-11.735-72.493z" />
<glyph unicode="&#xe90a;" glyph-name="language-flag" horiz-adv-x="951" d="M0 837.080h120.26v-1024.224h-120.26v1024.224zM148.569 784.702c0 0 81.426 52.363 207.448 52.363s193.806-26.176 193.806-26.176v-497.219c0 0-100.729 30.954-200.564 30.954-99.962 0-200.677-44.597-200.677-44.597v484.672zM951.064 223.996c0 0-81.44-52.349-207.448-52.349s-193.792 26.176-193.792 26.176v497.19c0 0 100.715-31.068 200.564-31.068 99.833 0 200.691 44.612 200.691 44.612v-484.558z" />
<glyph unicode="&#xe90b;" glyph-name="message-opened-read" horiz-adv-x="1101" d="M319.527 215.932l-250.634-277.975v-55.408l285.050 315.88-34.355-0.547zM1022.646-79.739l-28.142-0.359-285.911 314.667 50.145 0.001 264.103-287.597zM948.675 629.395l151.114-81.81-74.225-0.925-2.918-54.164v-572.235h-943.852v597.194l-0.852 30.13 110.941 81.808h-33.045l-155.838-83.275v-688.312h1104.017l-2.576 688.312zM319.588 248.44l454.577 5.152 2.071-49.144-456.649-6.566zM376.637 249.012l-298.341 297.648h-52.406l293.698-298.22zM706.233 224.185l319.331 322.475-2.918-54.164-285.41-288.24zM1025.564 546.66l-474.873 272.7v44.64l549.098-316.415zM77.942 547.585l472.751 271.775v44.64l-549.070-316.415z" />
<glyph unicode="&#xe90c;" glyph-name="new-message" horiz-adv-x="1428" d="M474.359 389.165l-385.010-422.058v-71.852l421.127 457.814zM1291.076-55.653l-373.989 409.203 34.206 34.172 374.916-406.657 0.273-36.904zM204.578 759.56l509.776-508.786v-100.615l-612.146 609.426zM1327.58 864l-613.226-613.226v-100.615l712.249 713.841zM0 864v-1024.238h1428.694v1024.238zM1326.484-55.84h-1224.276v815.425h1224.276z" />
<glyph unicode="&#xe90d;" glyph-name="price-tag" horiz-adv-x="1039" d="M359.475-108.963l-0.527-78.182-358.252 363.102 670.682 661.123h232.072l135.255-134.857-56.162-9.218-94.64 93.034-181.728-0.099-623.34-614.335 272.472-276.427zM1038.705 702.224l-57.47 8.991 0.114-193.323-622.16-623.838 0.043-78.837 679.474 680.584zM903.451 655.779c0-30.625-24.826-55.45-55.45-55.45s-55.45 24.826-55.45 55.45c0 30.625 24.826 55.45 55.45 55.45s55.45-24.826 55.45-55.45zM1007.169 464.816v0l-35.465-35.479c1.892-7.17-1.623 7.383 0 0 8.62-39.276 13.4-81.354 13.4-123.262 0-160.818-70.473-313.114-157.318-313.114-60.742 0-113.334 74.442-139.579 174.076l-35.321-36.075c33.629-114.827 99.293-192.824 174.901-192.824 109.777 0 198.785 164.772 198.785 367.924 0 56.845-17.256 151.642-19.403 158.755zM794.329 667.528c-0.84-3.813-1.28-7.711-1.28-11.749 0-11.794 3.728-22.675 9.987-31.666 8.251 3.058 16.615 5.079 25.236 5.079 17.909 0 35.122-6.942 51.126-19.333 0.043 0 0.085-0.071 0.085-0.071 12.291 8.293 20.925 21.381 23.5 36.588-23.059 17.312-48.281 26.885-74.712 26.885-11.579 0-22.888-2.219-33.941-5.734zM902.626 646.303c-23.117 17.383-48.352 26.956-74.839 26.956-109.833 0-198.813-164.702-198.813-367.881 0-63.403 8.648-123.021 23.912-175.114l35.321 36.089c-11.295 42.975-17.781 90.544-17.781 139.011 0 160.789 70.43 323.826 157.362 323.826 17.909 0 35.108-6.942 51.126-19.333z" />
<glyph unicode="&#xe90e;" glyph-name="print" horiz-adv-x="1070" d="M231.759 837.066h604.506v-159.324h-604.506v159.324zM791.541 324.043h44.739v-511.202h-44.739v511.202zM231.759 324.043h44.754v-277.991h-44.754v277.991zM464.97-140.542h371.296v-46.602h-371.296v46.602zM276.512 46.051h188.457v-186.594h-47.469v47.569h-46.745v45.721h-46.544v49.035h-47.698zM276.512 88.841h228.473v-42.79h-228.473v42.79zM464.97 46.051h40.002v-186.594h-40.002v186.594zM0.426 602.077v-415.977h136.037v231.333h797.885v-231.347h136.080v415.992h-1070.002zM954.762 488.274c-23.089 0-41.794 18.663-41.794 41.78 0 23.103 18.692 41.78 41.794 41.78s41.766-18.663 41.766-41.78c0-23.103-18.677-41.78-41.766-41.78z" />
<glyph unicode="&#xe90f;" glyph-name="search-disabled" d="M1025.433-84.58l-103.234-102.565-327.354 329.232 103.248 102.579zM366.288 837.066c-202.313 0-366.288-163.933-366.288-366.217 0-202.299 163.975-366.246 366.288-366.246 202.256 0 366.246 163.947 366.246 366.246-0.014 202.284-163.99 366.217-366.246 366.217zM366.288 209.401c-144.416 0-261.419 117.046-261.419 261.447 0 144.387 117.003 261.419 261.419 261.419 144.402 0 261.419-117.031 261.419-261.419-0.014-144.402-117.031-261.447-261.419-261.447z" />
<glyph unicode="&#xe910;" glyph-name="bars" horiz-adv-x="742" d="M142.254 345.79h86.284v-377.352h-86.284v377.352zM390.158 201.193h86.284v-232.755h-86.284v232.755zM512.113 101.297h86.284v-132.859h-86.284v132.859zM262.828 276.23h86.284v-307.793h-86.284v307.793z" />
<glyph unicode="&#xe911;" glyph-name="shopping-cart" horiz-adv-x="1383" d="M644.55 190.21l-320.696 427.884 16.7 12.617 320.668-428.013zM482.453 190.21l-293.896 394.995 16.728 12.646 293.825-395.152zM1149.636 345.765l-202.042 266.242 16.728 12.646 201.985-266.37zM1232.014 433.948l-135.781 179.31 16.728 12.646 135.724-179.438zM1070.428 236.956l-284.891 376.302 16.7 12.646 284.834-376.389zM952.956 188.475l-319.572 423.531 16.714 12.646 319.53-423.645zM798.753 189.699l-319.572 423.56 16.7 12.646 312.929-414.925zM1105.11 625.904l-312.488-414.128 9.616-22.079 319.53 423.673zM634.534 202.819l319.575 423.571 16.693-12.594-319.575-423.571-16.693 12.594zM472.608 202.811l319.575 423.571 16.693-12.594-319.575-423.571-16.693 12.594zM322.997 202.819l319.584 423.582 16.704-12.603-319.584-423.582-16.704 12.603zM490.533 625.904l-241.561-320.099 16.7-12.66 241.518 320.227zM419.378 79.665c-73.418 0-132.894-59.575-132.894-132.951s59.476-132.979 132.894-132.979 132.908 59.604 132.908 132.993-59.49 132.936-132.908 132.936zM462.025-95.974h-85.28v85.366h85.28v-85.366zM969.628 79.665c-73.432 0-132.922-59.575-132.922-132.951s59.49-132.979 132.922-132.979c73.403 0 132.894 59.604 132.894 132.993s-59.49 132.936-132.894 132.936zM1012.248-95.974h-85.266v85.366h85.266v-85.366zM268.432 653.957h1114.841v-23.245h-1114.841v23.245zM181.629 792.185c0-25.251-20.47-45.764-45.764-45.764h-90.103c-25.293 0-45.764 20.513-45.764 45.764v0c0 25.265 20.47 45.778 45.764 45.778h90.089c25.293 0 45.778-20.513 45.778-45.778v0zM276.071 317.243c0-26.885-21.154-48.522-47.228-48.522v0c-26.060 0-47.214 21.637-47.214 48.522v380.684c0 26.701 21.154 48.494 47.214 48.494v0c26.074 0 47.228-21.793 47.228-48.494v-380.684zM340.512 185.901c17.982-32.889 14.581-69.178-7.638-81.368v0c-22.235-12.149-54.752 4.724-72.692 37.398l-67.386 123.534c-18.010 32.875-14.581 69.207 7.638 81.354v0c22.206 12.177 54.724-4.709 72.649-37.384l67.428-123.534zM276.071 141.93c0-25.762 20.882-46.646 46.587-46.646h649.329c25.677 0 46.559 20.896 46.559 46.646v0c0 25.804-20.896 46.53-46.559 46.53h-649.329c-25.705 0.014-46.587-20.712-46.587-46.53v0zM257.137 672.663c-17.852-17.968-49.447-15.25-70.615 6.003l-75.381 75.18c-21.154 21.267-23.742 52.876-5.89 70.657v0c17.838 18.010 49.489 15.278 70.615-5.805l75.367-75.381c21.154-21.069 23.756-52.848 5.904-70.657v0zM936.283 173.183l323.471 457.345h123.52l-374.553-516.892z" />
<glyph unicode="&#xe912;" glyph-name="trade-association" horiz-adv-x="1887" d="M464.529 623.642v213.436h495.256v-213.422h-149.409v-810.802h-198.529v810.788h-147.318zM1320.624 837.080l185.683-1024.224h-211.303l-20.314 179.296h-157.972l-20.286-179.296h-208.131l182.511 1024.224h249.812zM1194.645 627.64l-54.454-434.641h111.028l-54.426 434.641h-2.148zM1878.713 641.865c-66.702 178.827-539.61 166.835-1056.26-26.814-516.607-193.621-881.317-495.568-814.571-674.367 66.702-178.827 539.595-166.835 1056.245 26.829 516.607 193.593 881.36 495.554 814.586 674.353zM1051.31 2.081c-392.036-146.933-758.211-136.449-817.844 23.429-59.661 159.836 209.796 408.552 601.818 555.485 392.036 146.933 758.14 136.449 817.815-23.415 59.661-159.822-209.81-408.552-601.789-555.499z" />
<glyph unicode="&#xe913;" glyph-name="warning1" horiz-adv-x="1184" d="M593.282 837.080l-593.282-1024.224h1184.801l-591.519 1024.224zM592.855 531.632c54.27 0 87.743-30.94 87.743-88.538 0-34.254-17.582-102.721-25.094-135.326l-42.606-176.252h-43.443l-46.774 202.142c-7.525 34.254-17.497 69.321-17.497 104.386 0 66.859 35.065 93.588 87.672 93.588zM592.855-82.247c-47.583 0-86.832 39.233-86.832 86.832 0 46.788 39.247 86.86 86.832 86.86 47.597 0 86.846-40.073 86.846-86.86 0-47.611-39.261-86.832-86.846-86.832z" />
<glyph unicode="&#xe914;" glyph-name="warning2" horiz-adv-x="1184" d="M593.282 837.080l-593.282-1024.224h1184.801l-591.519 1024.224zM592.371 788.585l549.511-951.747h-1098.993l549.483 951.747zM569.455 131.531l-46.774 202.142c-7.525 34.254-17.497 69.321-17.497 104.414 0 66.816 35.065 93.545 87.672 93.545 54.27 0 87.728-30.897 87.728-88.538 0-34.254-17.582-102.721-25.078-135.326l-42.606-176.252h-43.443zM592.855-82.247c-47.583 0-86.832 39.276-86.832 86.832 0 46.788 39.247 86.86 86.832 86.86 47.597 0 86.846-40.073 86.846-86.86 0-47.569-39.247-86.832-86.846-86.832z" />
<glyph unicode="&#xe915;" glyph-name="world-globe" horiz-adv-x="1696" d="M602.543 183.283c-1.294 1.18-27.526 24.738-34.112 33.002-6.231 8.336-18.351 10.441-24.951 13.927-6.415 3.371-48.95 17.341-58.864 9.902-10.256-7.34-24.212-11.451-29.546 0-5.135 11.851-7.881 13.386-15.562 15.292-7.354 1.608-3.513 10.469-4.069 18.45-0.726 7.896-4.937 16.175-10.256 10.441-5.135-5.561-23.486-20.257-26.046-12.818-2.775 7.269-15.406 37.428 3.87 43.003 19.049 5.59 35.022 2.276 39.987-2.746 4.738-4.851 8.251-19.077 14.282-17.341 5.89 1.921 2.576 12.489 4.766 21.196 2.205 8.962 16.132 20.612 22.576 33.102 6.060 12.177 7.354 19.545 15.037 22.746 8.251 3.385 12.461 7.867 19.815 13.386 7.711 5.663 19.432 10.654 23.671 13.358 4.225 2.945 23.302 12.319 29.915 10.841 6.216-1.779 10.441 0.341 5.135 9.816-5.135 9.701-12.12 38.123-22.206 50.97-10.285 12.861-11.366 16.274-15.976 28.451-4.937 12.177-10.455 22.817-13.942 14.552-3.856-8.336-11.735-19.517-15.962-9.076-4.21 10.812-3.856 10.143-9.19 15.122-5.306 5.022-9.701 6.131-17.213 8.336-7.354 2.318-14.68-0.627-14.325-7.697 0.769-7.155-6.942-20.257-2.006-29.83 4.766-9.502 8.991-19.418 2.775-22.632-6.642-3.484 0-23.571-6.642-23.131-6.231 0.469-9.317-0.44-9.317 6.829 0 7.127 3.101 18.408-8.806 18.408-11.735 0-18.365 6.131-26.985 12.319-8.421 6.032-15.378 2.618-13.372 16.771 2.205 13.927-0.939 18.876 8.435 26.474 9.73 7.995 11.922 12.475 18.706 9.204 6.971-3.413 11.749-3.413 16.16 0.542 4.21 3.955 12.092 2.375 12.092 7.226 0 4.951-8.991 4.951-7.867 13.23 0.882 8.591 5.107 3.912 6.758 17.939 1.665 13.956-10.072 35.25-21.821 32.406-11.565-2.675-29.703-19.006-33.388-11.65-3.856 7.127-11.352 4.012-25.677-1.209-14.297-4.851-74.113 5.050-78.31 10.171 0 0-10.086 7.269-15.576 3.413-5.135-4.054-26.417-2.205-33.031-1.109-6.415 1.109-12.277-7.425-20.186-4.624-8.052 2.874-36.132 8.364-42.734 12.861-6.401 4.423-15.775 4.423-20.186 6.8-4.21 2.176-19.787 3.314-22.93-1.18-3.115-4.509-14.866-12.418-20.896-18.010-5.691-5.49-12.447-4.48-6.6-16.231 5.677-11.65-15.051-18.706-9.73-31.637 5.135-12.731-1.124-47.597 20.172-54 21.296-6.829 38.878-10.912 51.169-0.627 12.489 9.873 31.181 9.873 36.886-1.209 5.876-11.281 9.161-27.881 28.052-37.428 19.077-9.644 35.805-37.057 34.682-49.134-0.911-12.319 0.74-53.033 20.172-76.59 19.815-23.202 39.987-65.735 41.438-55.762 1.665 10.072 1.665 20.073 6.259 12.917 4.026-7.425 15.193-29.632 33.374-33.388 18.18-4.21 27.328-5.419 34.126-12.021 6.786-6.701 12.846-10.498 20.172-13.927 7.525-3.413 25.677-13.386 29.362-20.016 3.813-6.673 2.19-15.676-1.665-25.748-3.484-10.114-7.881-19.987-2.576-29.731 5.306-9.431 16.501-36.787 25.506-42.918 9.175-6.259 18.138-16.146 15.962-30.086-2.006-13.927-12.092-73.915-10.997-87.144 0.896-13.386-12.489-57.499-1.479-75.353 10.469-17.809 28.607-23.486 36.489-21.282 8.080 2.375 1.85 2.803-1.992 11.38-3.87 8.236-3.328 18.777 1.067 26.672 4.409 7.881 4.409 12.191 2.034 21.196-2.034 8.792-1.109 14.013 4.225 20.513 5.49 6.701 27.682 24.766 34.653 32.676 6.985 7.596 50.828 61.326 56.687 65.735 5.89 4.423 18.89 15.122 23.316 31.907 4.409 16.601 19.787 49.703 9.147 57.969-10.826 8.563-50.073 14.68-51.937 15.832v0zM709.29 750.135c2.945 6.060 10.285 20.783 14.311 28.891h-168.742c1.821-8.906 9.374-42.206 8.052-55.606-1.821-15.761 3.144-10.242 7.34-16.402 4.239-6.131 3.115-15.491 0.369-22.76-2.561-7.34-4.196-23.642 4.409-42.448 8.449-19.176 18.535-43.117 27.171-44.212 8.421-1.067 6.415-13.187 12.291-8.706 5.861 4.423 6.758 14.325 11.735 28.891 4.766 14.495 4.766 25.236 17.057 32.406 12.305 7.127 46.232 30.727 53.943 39.063 7.496 8.336 15.947 11.65 13.173 26.275-2.76 14.325-5.306 26.275-1.109 34.611v0zM1540.562 588.719c-6.585 4.48-44.924 35.037-61.241 31.268-16.7-4.054-46.062 8.906-50.814 11.65-4.78 2.647-44.042 14.866-64.952 15.662-10.256 0.298-53.7 9.916-71.852 17.809-18.195 7.91-33.586 46.133-68.268 40.172-4.395-0.939-46.204-6.687-56.845-16.132-10.841-9.715-15.42-20.626-21.282-22.93-5.89-2.375-22.945-1.109-22.945-9.53 0-8.435 5.861-34.041-1.081-28.991-6.971 4.965-13.942 16.7-17.028 7.796-3.144-9.076-8.634-13.927-11.749-10.54-3.115 3.271-19.276 0-21.282-5.59-2.19-5.691-22.945-18.55-31.921-20.385-9.175-1.436-12.846-6.060-17.781-8.236-4.795-2.276-40.912-19.077-47.883-12.818-6.786 6.131-9.019 2.205-13.216 1.067 0 0-12.803 2.403-20.896 12.12-8.080 10.271-9.73 6.857-18.734 16.132-8.792 9.802-11.153 19.176-20.158 15.165-8.792-3.884-47.313-43.415-62.35-61.297-14.866-17.781-41.296-36.316-28.080-48.879 13.216-13.031 20.158-11.309 21.821-18.621 1.637-7.368 3.3-15.236 5.32-17.982 2.020-2.846 14.851-12.66 21.296 0.542 6.585 13.485 7.496 23.030 14.836 20.655 7.697-2.048 8.977-7.17 5.504-17.27-3.856-10.072-6.6-25.677-19.474-25.007-12.617 0.469-26.388 8.435-30.613 6.585-4.196-1.479-6.942-5.59-11.735-9.332-4.937-3.955-19.787-22.292-29.887-25.336-10.086-2.545-22.377-0.27-15.591-8.606 6.957-8.634 17.256-27.142 7.51-26.403-9.502 0.542-25.648 2.375-26.587-7.34-0.925-9.474-5.334-15.165-3.115-21.48 2.19-6.957 9.005-19.872 17.625-15.392 8.435 4.48 24.936 9.005 29.133 19.148 4.225 10.001 9.175 21.011 19.815 20.641 10.484-0.542 36.331-14.495 34.511-19.517-1.464-4.88-6.614-16.856-0.383-12.745 6.245 3.756 11.749 8.265 15.605 9.802 3.484 1.807 8.435-5.59 9.902-8.336 1.637-2.945 12.305-8.364 14.481 0.641 2.063 8.891 4.253 2.105 10.469-0.641 6.6-2.945 25.677-4.993 28.423-7.17 2.59-2.105 8.449-9.005 1.124-17.982-7.739-8.691-16.16-12.376-28.451-5.59-12.291 6.701-25.478-5.604-39.276 1.095-13.913 6.701-7.666 16.146-24.012 22.93-16.302 6.701-53.929-1.665-65.494-4.993-11.749-3.271-12.461-4.48-17.256-10.143-4.565-5.604-36.118-41.752-36.118-62.364 0-20.754 11.749-76.604 49.504-70.998 37.982 5.59 60.727 2.205 56.517-8.906-4.225-11.082-1.821-14.098 4.752-26.885 6.985-12.846 22.945-98.113 25.705-112.138 2.59-14.027-2.205-31.765 15.392-29.090 17.809 2.831 36.503 7.368 43.458 23.586 7.725 16.146 8.82 34.483 18.379 44.027 9.516 9.332 21.239 9.332 22.363 22.817 0.911 13.499-2.59 45.194 3.856 52.619 6.231 7.198 36.118 40.742 39.433 54.142 2.917 13.287 7.34 16.601-4.795 16.601-12.461 0-33.388 1.807-39.048 12.818-5.861 11.181-19.815 32.633-19.815 37.598 0 4.851 8.435 4.423 12.832-6.131 4.196-10.64 19.262-42.476 36.316-35.763 16.885 6.772 40.912 14.51 41.624 25.123 0.369 10.64-7.697 22.76-16.302 22.292-8.435-0.683-17.454 5.677-17.454 11.636 0 6.131 1.665 3.856 11.749 0 10.1-3.756 13.386-10.469 28.622-11.636 15.591-1.109 33.201-16.047 41.624-22.93 8.478-6.8 23.5-52.463 27.171-57.144 3.841-4.48 8.080-4.48 11.922 4.681 3.47 8.906 19.645 37.598 28.806 45.378 8.977 7.496 9.332 18.351 14.836 11.65 5.334-6.886 28.224-23.671 29.731-33.416 1.637-10.242-1.109-31.992 3.699-25.293 4.922 6.8 8.75 20.641 12.803 14.424 4.196-6.16 4.196-15.534 14.311-8.265 10.256 7.056 27.895 9.902 18.166 25.606-9.388 15.576-3.144 25.108 2.746 25.478 5.861 0.84 45.849 7.91 46.93 29.731 1.308 21.821-13.927 33.473-6.942 44.654 6.942 11.181 17.057 21.282 19.233 14.694 2.247-6.8-5.277-28.622 4.054-25.236 9.73 3.484 20.896 3.484 20.896 10.086 0 6.886-2.19 23.586 2.389 27.867 4.225 4.594 35.394 34.14 39.261 45.962 3.856 11.479 10.841 21.821 4.609 30.627-5.691 8.806-15.976 6.131-7.725 17.341 7.725 11.011 21.282 21.353 31.368 22.093 32.449 3.016 23.117-36.957 23.841-45.863 0.355-9.076 0.355-31.268 5.334-20.087 4.752 11.011 10.256 24.766 19.787 34.112 9.73 9.745 15.065 15.704 15.42 24.026 0.754 8.634 1.28 11.38 10.285 15.761 9.175 4.523 48.978 20.257 52.647 30.826 3.841 10.441-4.58 20.044 4.752 19.247 9.73-0.44 18.692-11.011 23.671-5.221 4.58 5.221 15.392 15.292 14.694 20.925-0.598 6.032-16.16 18.848-22.434 23.273v0zM1368.52 401.158c-3.3-7.326-4.979-8.535-9.73-23.671-4.951-14.851-3.271-10.912-7.896-20.612-4.951-9.474-12.832-10.484-20.726-16.601-8.080-6.33-10.058-18.45-10.058-18.45-6.971-9.644 28.066 13.386 40.314 20.754 12.12 7.127 9.005 15.392 10.114 27.027 1.081 12.092 4.196 13.457 9.53 18.777 5.306 4.894 1.109 14.966-1.45 22.135-2.732 7.34-6.985-2.134-10.1-9.36v0zM1259.199 147.492c3.671 2.746 1.138 9.076 6.999 7.91 5.861-1.095 11.167-4.324 18.138-0.669 6.971 4.040 12.832 2.304 11.721 8.934-1.308 6.829 0 15.576-1.637 21.154-1.665 5.691-11.195 7.34-18.166 1.209-6.942-6.174-16.302-15.704-16.302-12.177 0 3.115 4.026 12.177 2.034 17.767-2.034 5.604 0.882 10.654-9.73 5.961-10.64-4.423-16.501-3.215-20.201-9.374-3.643-6.231-7.896-16.87-14.481-10.143-6.245 6.772-24.979 20.626-24.979 20.626-1.45 1.906-22.732 19.148-15.363 7.326 7.34-11.636 18.535-31.708 24.012-38.892 5.135-7.425 11.025-15.761 17.426-11.907 6.444 4.111 7.525 5.107 15.976 0 8.407-4.979 20.882-10.555 24.553-7.725v0zM1389.617 163.183c-10.086 4.551-5.861 8.449-17.982 10.654-12.277 2.162-22.363 0-25.833 2.162-3.144 2.489-19.091 7.81-16.728 0 2.034-7.896 16.331-9.972 20.201-12.347 3.671-2.205-5.334-7.099 1.637-11.238 6.642-3.756 11.55-10.983 20.555-8.677 9.147 2.276 12.277-2.945 19.787-4.111 7.368-1.038 14.866 1.166 11.749 4.48-3.3 3.371-5.107 7.91-4.752 11.707 0.527 4.168 1.45 2.959-8.634 7.368v0zM1384.468 113.379c-3.856 11.281-12.832 32.007-15.037 21.821-2.034-9.902-16.501-17.341-21.835-16.601-4.951 0.469-2.19 5.59-2.19 10.171 0 4.423-2.746 8.634-14.836 5.32-12.305-3.115-14.866-15.023-18.166-14.112-3.115 1.266-11.749 3.57-17.057-2.489-5.135-6.231-10.086-17.982-16.331-20.257-6.585-2.205-27.895-4.88-27.895-13.942 0-9.019 5.362-22.206 4.979-29.703-0.754-7.056-10.441-23.657 2.561-28.877 7.553-3.058 12.674-3.342 21.48 1.166 8.251 4.423 45.123 16.146 50.073 12.277 4.78-4.012 12.277-13.287 15.775-14.966 6.971-4.083 8.606-13.556 17.582-15.818 9.005-2.318 15.976-3.314 19.844-3.314s17.057 4.48 20.172 12.277c3.115 7.91 9.005 26.318 11.749 35.321 2.718 8.691 5.277 18.876-2.746 26.672-7.924 7.539-24.425 24.040-28.123 35.051v0zM1221.403 837.066h-747.983c-261.376 0-473.419-210.222-473.419-469.45v-85.323c0-259.271 212.043-469.45 473.419-469.45h747.997c261.39 0 473.433 210.179 473.433 469.45v85.323c0 259.228-212.057 469.45-473.448 469.45zM1622.572 287.996c0-229.27-193.905-415.166-433.062-415.166h-684.197c-239.157 0-433.048 185.897-433.048 415.166v75.381c0 229.199 193.891 415.067 433.048 415.067h684.197c239.157 0 433.062-185.883 433.062-415.081v-75.367z" />
<glyph unicode="&#xe916;" glyph-name="document" horiz-adv-x="742" d="M555.442 744.061h93.091v-93.105h-93.091v93.105zM648.762 650.258v-93.446h-185.129v188.585h91.17v91.682h-554.803v-1024.224h741.851v837.404zM650.624-97.127l-560.066-0.298 0.655 843.293h280.268v-280.268h279.144z" />
<glyph unicode="&#xe917;" glyph-name="document-text" horiz-adv-x="742" d="M185.229 651.553h93.134v-93.119h-93.134v93.119zM185.229 464.362h93.134v-93.119h-93.134v93.119zM185.229 278.864h373.401v-93.119h-373.401v93.119zM185.229 92.625h373.401v-93.119h-373.401v93.119z" />
<glyph unicode="&#xe918;" glyph-name="sponsored" d="M1035.167-64.067l-126.040-129.044-202.288 223.389 126.057 129.062zM477.156 837.066c-263.548 0-477.156-193.123-477.156-431.427 0-238.321 213.607-431.46 477.156-431.46 263.474 0 477.099 193.14 477.099 431.46-0.018 238.303-213.626 431.427-477.099 431.427zM477.156 97.638c-188.128 0-340.545 137.888-340.545 308.001 0 170.097 152.418 307.968 340.545 307.968 188.109 0 340.545-137.872 340.545-307.968-0.018-170.114-152.455-308.001-340.545-308.001zM649.76 488.764q0-28.396-14.616-50.937-14.285-22.541-53.817-47.423l-25.248-16.101q-22.589-14.344-33.884-28.98-10.963-14.636-11.96-32.2h-88.698q1.993 29.859 18.934 53.278 17.275 23.419 50.494 43.911 35.546 21.662 50.162 38.055 14.616 16.685 14.616 36.885 0 25.761-19.268 40.691-18.934 14.93-54.149 14.93-33.553 0-56.474-17.272-22.589-17.272-26.576-45.668l-94.676 3.512q8.97 59.425 55.477 92.504t120.921 33.079q78.732 0 123.579-31.616 45.179-31.324 45.179-86.651zM418.881 188.416v79.038h96.006v-79.038z" />
<glyph unicode="&#xe920;" glyph-name="bccard" horiz-adv-x="1314" d="M49.809 742.318c-20.446-9.234-39.689-32.47-45.303-54.93-6.008-23.645-6.008-706.818 0-728.458 5.205-18.85 28.859-46.106 46.496-53.716 10.831-4.411 118.262-5.213 607.77-5.213h594.953l17.638 9.234c9.616 5.205 23.263 17.227 29.68 26.462l12.023 17.227 1.213 361.217c0.802 253.773 0 366.019-3.199 376.85-5.624 19.653-26.069 42.495-46.106 51.319-15.241 7.219-44.1 7.61-607.379 7.61-566.495 0.008-592.155-0.382-607.807-7.601zM1260.581 728.29c7.219-3.199 18.44-12.433 24.857-20.837l11.63-14.829v-368.034c0-366.841 0-368.034-8.432-379.274-4.411-6.008-14.439-15.241-21.658-20.037l-13.227-9.234h-1192.322l-13.227 9.234c-7.61 4.823-17.227 15.241-21.658 22.851-8.432 14.030-8.432 18.050-8.432 376.85v362.821l9.616 15.632c6.008 9.616 16.036 18.050 26.069 22.851 15.632 7.219 39.689 7.61 604.981 7.61 494.337-0.008 590.551-0.812 601.786-5.624zM166.135 417.166l19.229 19.391c3.199 3.234 5.35 6.469 7.482 10.778 2.132 6.47 3.199 10.778 3.199 14.012 0 11.851-12.814 6.469-18.164 1.072-5.35-7.541-11.746-14.012-18.164-21.554zM192.857 343.88c12.814 9.704 22.428 17.258 27.778 24.799 6.416 7.541 7.482 22.626 4.265 32.343-3.199 7.541-9.615 9.704-22.428 3.234-7.492-7.541-14.965-16.157-23.494-23.698 3.199-16.196 7.482-30.188 13.88-36.659zM377.722 604.675c53.434 3.234 86.573-14.012 96.188-50.66-20.296-3.234-39.536-6.48-59.83-9.704-6.416 16.157-19.229 26.932-39.526 23.698-29.91-4.307-42.754-17.228-42.754-47.395 3.199-43.118 19.241-63.581 52.368-66.816 29.91 0 47.018 17.258 43.82 50.66 20.296 2.163 41.688 4.307 63.050 6.48 10.68-56.040-10.68-92.688-66.248-108.844-29.91-7.553-64.115-12.922-92.971-4.307-37.393 11.851-68.38 56.040-70.531 94.833-2.132 36.638 18.164 77.594 51.302 95.894 17.069 8.603 38.46 13.983 65.171 16.146zM388.402 644.542c-59.83 0-113.266-17.258-156.019-53.877-45.953-36.638-75.862-79.738-89.762-136.85 7.482 10.778 13.88 20.463 20.296 30.168 12.814 20.463 29.91 33.414 45.953 43.118 36.326 10.778 43.82-12.922 20.296-73.268 42.754 0 59.83-30.168 49.151-89.442-3.199-17.228-12.844-33.414-36.336-47.395-19.229-16.186-33.109-33.414-42.724-49.569-42.754 36.65-63.050 100.231-56.632 183.203-3.199-16.157-6.416-36.638-6.416-60.347 0-70.061 23.494-129.307 72.664-179.969 50.236-49.558 108.989-73.268 179.513-73.268 69.466 0 125.031 23.708 175.248 73.268 49.14 50.67 75.862 109.916 75.862 179.969s-26.722 130.398-75.862 181.040c-50.236 49.548-105.802 73.257-175.248 73.257zM1125.722 49.715c-211.585-33.414-429.577-29.106-655.031 10.768-69.466 9.704-63.050 26.943 20.296 46.334 188.062 30.168 399.636 26.932 634.736-6.47 76.928-20.463 76.928-36.65 0-50.63z" />
<glyph unicode="&#xe921;" glyph-name="dinacard" horiz-adv-x="1314" d="M49.803 742.317c-20.443-9.227-39.692-32.477-45.296-54.93-6.011-23.649-6.011-706.802 0-728.455 5.204-18.845 28.867-46.103 46.506-53.722 10.826-4.413 118.27-5.216 607.77-5.216h594.945l17.64 9.227c9.617 5.204 23.259 17.238 29.67 26.467l12.032 17.238 1.208 361.208c0.806 253.778 0 366.025-3.207 376.851-5.619 19.652-26.061 42.493-46.103 51.322-15.238 7.216-44.106 7.619-607.367 7.619-566.497 0.013-592.159-0.389-607.796-7.605zM1260.549 728.284c7.216-3.207 18.444-12.434 24.855-20.846l11.63-14.835v-368.039c0-366.828 0-368.039-8.423-379.262-4.413-6.011-14.434-15.238-21.647-20.042l-13.227-9.227h-1192.308l-13.227 9.227c-7.619 4.815-17.238 15.238-21.647 22.858-8.423 14.032-8.423 18.041-8.423 376.851v362.818l9.617 15.642c6.011 9.617 16.030 18.041 26.061 22.858 15.642 7.216 39.692 7.619 604.967 7.619 494.328-0.013 590.547-0.82 601.776-5.619zM630.060 591.812c-72.626-8.009-129.216-31.785-177.179-74.202-23.022-20.271-43.026-44.423-56.455-68.071l-5.481-9.509-289.131-0.752-7.813-2.754c-18.088-6.254-30.286-17.518-36.861-34.161l-3.289-8.135v-138.896l3.152-8.009c7.948-20.023 25.625-33.411 47.96-36.415 5.481-0.752 65.636-1.248 147.58-1.248h138.536l3.839-7.134c10.414-19.395 29.599-43.797 48.784-62.191 45.632-43.545 101.539-70.326 167.861-80.334 21.379-3.255 68.104-3.255 89.068 0 29.735 4.503 62.348 13.891 85.645 24.525 53.992 24.651 103.047 68.446 129.906 115.995l5.071 9.009 143.88 0.376c135.658 0.376 144.293 0.5 151.419 2.754 11.099 3.376 18.227 7.632 25.897 15.268 8.495 8.51 13.154 17.395 15.073 28.906 1.918 11.762 2.055 124.255 0 135.517-3.561 20.523-17.952 36.787-39.328 44.171l-7.813 2.754-289.131 0.752-3.426 5.882c-38.507 67.82-105.375 117.626-183.756 137.144-24.938 6.132-43.713 8.51-72.488 8.884-14.661 0.25-28.913 0.127-31.518-0.127zM1211.475 428.016c16.715-4.005 29.599-15.517 34.532-31.032 1.918-5.882 2.055-15.517 1.782-74.827l-0.409-68.071-3.839-7.508c-6.439-12.511-17.265-21.148-31.104-24.9-6.717-1.751-59.333-2-556.337-2s-549.624 0.25-556.337 2c-8.906 2.376-15.62 6.254-22.064 12.511-13.703 13.514-13.566 13.014-13.566 90.594 0 69.45 0.272 73.202 6.576 82.462 3.426 5.128 11.509 12.638 16.854 15.766 12.194 7.255-29.872 6.758 567.163 6.758 482.752 0.127 549.898-0.127 556.749-1.751zM282.692 377.963l-3.426-3.004v-105.237h19.184v80.712l44.947-41.041c42.478-38.793 45.22-40.918 49.88-40.918 3.839 0 5.758 0.752 7.813 3.255 2.879 3.255 2.879 4.63 2.879 56.309v53.056h-19.184v-40.167c0-24.777-0.551-39.919-1.37-39.668-0.685 0.25-20.965 18.27-44.947 40.167-39.054 35.411-44.259 39.668-48.098 39.668-2.879 0-5.616-1.127-7.674-3.129zM489.333 378.338c-2.739-2.629-71.667-106.61-71.667-107.987 0-0.376 5.207-0.627 11.509-0.627h11.648l9.045 14.14c31.792 49.302 45.356 69.697 45.905 69.697 0.824 0 25.215-37.539 25.76-39.668 0.409-1.248-3.839-1.626-18.088-1.626h-18.5l-4.112-6.758c-2.327-3.631-4.248-7.007-4.248-7.508 0-0.376 12.741-0.752 28.501-0.752l28.365-0.127 8.359-13.39 8.495-13.39 12.468-0.376c6.851-0.127 12.468 0 12.468 0.376 0 1.5-68.788 105.11-71.667 107.987-1.782 1.751-4.381 2.754-7.127 2.754s-5.344-1-7.127-2.754zM842.046 379.593c-1.918-1.5-69.882-103.611-71.803-108.117-0.551-1.376 1.37-1.751 10.826-1.751 9.317 0 11.648 0.376 12.883 2.252 0.824 1.127 13.019 20.023 27.271 41.794 14.114 21.898 26.172 39.543 26.72 39.166 1.233-0.627 26.035-38.666 26.035-39.919 0-0.376-8.221-0.752-18.361-0.752h-18.227l-4.934-7.134-4.797-7.255 28.501-0.376 28.64-0.25 18.088-27.529h12.333c6.851 0 12.194 0.5 11.924 1-1.507 3.376-69.2 105.237-71.393 107.613-3.152 3.129-10.005 3.753-13.703 1.248zM88.798 324.782v-55.060h39.603c35.765 0 40.424 0.25 48.507 2.501 33.981 9.634 50.288 47.926 33.847 79.584-4.381 8.384-14.114 17.518-23.022 21.646-12.059 5.633-19.047 6.383-60.158 6.383h-38.781zM175.811 356.693c13.84-6.254 20.417-16.893 20.145-32.536-0.137-14.14-6.851-24.9-19.733-31.409l-7.26-3.631-59.607-0.752v72.826l58.239-0.752zM236.376 378.962c-0.551-0.376-0.96-25.153-0.96-55.060v-54.183h21.924v110.115h-10.005c-5.616 0-10.549-0.376-10.962-0.877zM676.788 377.839c-25.897-6.383-41.246-25.65-41.246-51.806 0-23.651 11.371-41.416 32.613-51.054l10.414-4.63 80.298-0.752v18.892h-34.668c-42.478 0-46.041 0.752-56.729 10.636-10.826 10.134-13.978 23.274-9.181 38.040 2.606 8.135 11.099 17.018 19.733 20.645 5.758 2.376 9.045 2.629 43.577 3.004l37.27 0.376v18.644l-37.27-0.127c-28.231 0-39.189-0.5-44.807-1.879zM941.116 324.782v-55.060h20.554l0.272 45.422 0.409 45.296h36.998c34.807 0 37.27-0.127 41.794-2.501 6.988-3.879 10.139-9.509 10.139-18.77 0-9.009-3.014-14.765-10.139-19.020-4.381-2.754-5.758-2.879-33.708-2.879h-29.326v-17.518l23.022-0.127h22.881l14.796-15.016 14.938-14.892h29.189l-12.333 11.51c-6.851 6.383-13.019 12.013-13.84 12.511s-3.152 2.879-5.071 5.255l-3.7 4.255 6.167 3.255c8.632 4.63 14.114 12.638 16.715 23.899 1.782 8.51 1.782 10.385-0.137 18.892-2.467 11.137-6.717 17.644-14.796 23.024-10.549 7.007-14.661 7.508-67.146 7.508h-47.686zM1094.59 324.908v-55.183h39.466c41.246 0 47.14 0.627 58.512 5.882 10.549 5.005 18.088 12.389 24.254 23.774l5.894 10.761-0.137 15.142c0 17.018-1.507 22.149-9.729 33.034-5.894 7.884-15.347 14.517-26.035 18.144-7.4 2.501-10.826 2.754-50.014 3.129l-42.204 0.376zM1180.644 358.068c8.221-3.255 17.54-13.139 20.282-21.772 6.167-19.395-4.934-40.666-24.254-45.799-5.481-1.5-13.84-2-34.397-2h-27.13v35.411c0 19.522 0.409 35.912 0.96 36.415 0.685 0.5 13.978 0.752 29.872 0.5 23.981-0.376 29.735-0.877 34.668-2.754z" />
<glyph unicode="&#xe922;" glyph-name="elo" horiz-adv-x="1314" d="M49.804 742.317c-20.443-9.229-39.692-32.476-45.298-54.931-6.010-23.648-6.010-706.804 0-728.453 5.204-18.845 28.866-46.104 46.505-53.721 10.826-4.413 118.269-5.217 607.77-5.217h594.946l17.639 9.229c9.617 5.204 23.26 17.237 29.672 26.467l12.032 17.237 1.207 361.209c0.805 253.778 0 366.024-3.205 376.85-5.62 19.651-26.062 42.494-46.104 51.321-15.239 7.216-44.105 7.618-607.367 7.618-566.495 0.013-592.156-0.388-607.797-7.605zM1260.554 728.286c7.216-3.205 18.444-12.434 24.856-20.845l11.629-14.834v-368.036c0-366.829 0-368.036-8.424-379.264-4.413-6.010-14.433-15.239-21.649-20.042l-13.227-9.229h-1192.306l-13.227 9.229c-7.618 4.816-17.237 15.239-21.649 22.857-8.424 14.031-8.424 18.043-8.424 376.85v362.819l9.617 15.64c6.010 9.617 16.031 18.043 26.062 22.857 15.64 7.216 39.692 7.618 604.966 7.618 494.327-0.013 590.546-0.819 601.774-5.62zM258.47 449.512c13.126 4.375 27.125 6.709 41.652 6.709 63.586 0 116.672-45.151 128.805-105.18l90.128 18.376c-20.651 101.97-110.837 178.74-218.935 178.74-24.792 0-48.534-4.026-70.82-11.492zM152.125 157.484l60.961 68.894c-27.185 24.094-44.335 59.269-44.335 98.47 0 39.142 17.152 74.321 44.335 98.354l-60.961 68.952c-46.202-40.952-75.37-100.745-75.37-167.306 0-66.619 29.166-126.413 75.37-167.365zM428.927 298.482c-12.192-59.97-65.22-105.064-128.748-105.064-14.583 0-28.643 2.332-41.711 6.768l-29.166-87.27c22.285-7.409 46.085-11.433 70.877-11.433 107.978 0 198.107 76.653 218.876 178.506zM597.867 223.52c-2.975 4.785-6.942 12.425-9.392 18.085-14.293 33.134-14.934 67.437-2.918 100.337 13.242 36.11 38.56 63.702 71.287 77.82 41.127 17.675 86.571 14.234 126.005-9.159 25.026-14.35 42.761-36.519 56.236-67.902 1.692-4.026 3.208-8.284 4.726-11.959zM680.004 366.5c-29.227-12.542-44.276-39.96-41.127-72.044l123.672 53.26c-21.292 24.967-48.944 33.251-82.546 18.784zM777.949 250.646c-0.059 0-0.059-0.059-0.059-0.059l-2.567 1.751c-7.409-11.959-18.9-21.7-33.427-28.001-27.652-12.018-53.26-8.927-71.695 7.233l-1.692-2.567c0 0 0 0.059-0.059 0.059l-31.386-46.961c7.817-5.425 16.16-9.976 24.908-13.65 34.651-14.409 70.118-13.708 105.064 1.457 25.26 10.967 45.094 27.652 58.626 48.828zM929.739 488.831v-260.995l40.603-16.45-23.042-53.785-44.802 18.666c-10.035 4.375-16.919 11.026-22.051 18.55-4.958 7.641-8.633 18.201-8.633 32.319v261.694zM1034.861 294.281c0 22.227 9.859 42.176 25.377 55.71l-41.652 46.434c-28.236-24.967-46.027-61.428-46.027-102.030-0.059-40.66 17.733-77.178 45.91-102.146l41.594 46.434c-15.459 13.591-25.202 33.427-25.202 55.594zM1108.829 220.253c-8.168 0-16.101 1.4-23.451 3.85l-19.892-59.095c13.591-4.55 28.117-7.058 43.284-7.058 65.919-0.059 120.929 46.728 133.705 108.854l-61.136 12.483c-6.942-33.776-36.752-59.095-72.511-59.036zM1109.004 430.611c-15.109 0-29.635-2.449-43.227-6.942l19.717-59.153c7.409 2.449 15.285 3.793 23.451 3.793 35.818-0.059 65.686-25.493 72.454-59.328l61.136 12.367c-12.542 62.244-67.553 109.205-133.53 109.264z" />
<glyph unicode="&#xe923;" glyph-name="rupay" horiz-adv-x="1314" d="M49.804 742.318c-20.443-9.229-39.692-32.476-45.298-54.931-6.010-23.648-6.010-706.804 0-728.453 5.204-18.845 28.866-46.104 46.505-53.721 10.826-4.413 118.269-5.217 607.77-5.217h594.946l17.639 9.229c9.617 5.204 23.26 17.237 29.672 26.467l12.032 17.237 1.207 361.209c0.805 253.778 0 366.024-3.205 376.85-5.62 19.651-26.062 42.494-46.104 51.321-15.239 7.216-44.105 7.618-607.367 7.618-566.495 0.013-592.156-0.388-607.797-7.605zM1260.554 728.286c7.216-3.205 18.444-12.434 24.856-20.845l11.629-14.834v-368.036c0-366.829 0-368.036-8.424-379.264-4.413-6.010-14.433-15.239-21.649-20.042l-13.227-9.229h-1192.306l-13.227 9.229c-7.618 4.816-17.237 15.239-21.649 22.857-8.424 14.031-8.424 18.043-8.424 376.85v362.819l9.617 15.64c6.010 9.617 16.031 18.043 26.062 22.857 15.64 7.216 39.692 7.618 604.966 7.618 494.327-0.013 590.546-0.819 601.774-5.62zM208.973 442.437c-3.61-7.216-76.58-220.497-76.58-224.508 0-0.805 15.64-0.805 34.876-0.401l34.475 1.207 12.824 38.081c10.020 30.463 14.433 38.486 21.248 39.289 10.422 1.611 14.433-6.010 20.443-39.289 8.022-43.703 4.011-40.093 46.908-40.093 27.66 0 37.68 1.207 37.68 5.204 0 12.434-20.845 78.176-27.66 87.003l-7.216 10.020 22.455 12.032c36.487 19.637 60.135 63.34 47.714 89.403-9.617 20.042-29.27 25.66-99.424 28.061-60.523 2.012-63.327 1.611-67.74-6.010zM296.364 391.115c5.217-5.204 5.217-7.618-0.805-20.042-6.815-14.433-25.66-26.062-42.898-26.062-9.617 0-9.617-0.805-2.4 18.444 14.433 40.093 13.628 38.887 27.66 36.083 6.828-1.598 15.239-5.204 18.444-8.424zM647.968 446.046c-1.207-2.4-18.444-51.723-38.081-109.845-20.042-58.136-37.29-108.639-38.887-112.65-2.4-6.412 0-7.216 32.877-6.010l35.681 1.207 12.032 35.277c11.629 33.683 12.421 34.876 24.454 34.876 20.845 0 58.524 8.424 74.568 16.432 33.683 17.237 54.125 42.898 63.34 80.591 6.412 25.259-1.999 45.298-22.857 54.125-18.444 8.008-138.725 12.81-143.127 5.996zM734.958 388.714c5.62-8.814 0.401-26.467-11.228-38.081-7.216-7.216-14.031-9.617-26.452-9.617-11.629 0-16.044 1.611-14.433 5.204 0.805 2.4 5.217 15.239 9.229 28.061l7.216 23.26 15.64-1.207c9.202-0.805 17.625-4.011 20.027-7.618zM878.085 382.304c-36.888-6.815-39.289-8.424-46.104-29.672-3.61-11.228-6.010-20.845-5.204-21.649s9.215 1.207 18.845 4.413c22.455 7.618 50.115 8.814 58.136 1.999 10.422-8.827 7.618-11.629-12.434-14.433-62.536-8.424-87.795-21.248-101.824-51.321-10.422-22.857-9.617-37.276 2.4-48.907 15.64-16.044 48.517-12.421 77.371 8.424 8.827 6.815 8.827 6.815 5.204-4.011l-4.413-10.422h63.34l16.833 47.31c26.868 75.374 28.061 94.621 6.412 110.651-8.424 6.412-17.639 8.424-39.692 8.827-16.031 0.401-33.265 0-38.874-1.207zM888.103 274.456c-12.421-18.845-38.081-23.26-38.081-6.412 0 10.422 9.617 17.639 27.258 20.845 17.237 2.804 20.042-0.401 10.826-14.433zM389.376 319.769c-23.648-70.154-24.856-82.992-10.020-97.827 9.215-8.827 12.824-10.020 32.072-8.424 16.044 1.598 26.467 5.204 39.692 14.433l17.639 12.434-3.61-10.020c-2.4-5.62-4.011-10.826-4.011-12.032s15.64-1.207 34.876-0.805l34.475 1.207 25.259 74.165c13.628 40.899 26.062 77.371 27.66 81.381 2.804 6.412 0.401 7.216-32.072 6.010l-35.277-1.207-13.628-40.093c-7.216-22.054-16.044-46.505-19.637-54.527-10.020-23.26-37.68-30.463-37.68-10.020 0 4.803 7.216 30.463 16.044 56.525s16.044 48.103 16.044 48.907c0 0.805-15.239 1.207-33.669 1.207h-33.683l-20.469-61.315zM1002.363 369.882c0-6.010 2.804-43.703 6.010-82.992l6.412-72.166-14.834-13.227c-14.031-13.227-23.26-15.239-45.312-8.424-6.010 1.611-22.054-38.887-18.444-47.31 1.207-3.61 10.826-5.204 30.865-5.204 34.475 0 55.319 8.827 80.578 33.683 13.669 14.031 141.542 191.631 146.36 203.65 0.805 1.999-13.628 3.205-31.671 2.4l-33.683-1.207-29.672-51.321c-16.432-28.061-30.073-50.516-30.463-50.115-0.805 0.805 1.207 24.050 3.61 52.515l4.803 50.92h-74.555v-11.2z" />
<glyph unicode="&#xe924;" glyph-name="troy" horiz-adv-x="1314" d="M49.804 742.318c-20.443-9.229-39.692-32.476-45.298-54.931-6.010-23.648-6.010-706.804 0-728.453 5.204-18.845 28.866-46.104 46.505-53.721 10.826-4.413 118.269-5.217 607.77-5.217h594.946l17.639 9.229c9.617 5.204 23.26 17.237 29.672 26.467l12.032 17.237 1.207 361.209c0.805 253.778 0 366.024-3.205 376.85-5.62 19.651-26.062 42.494-46.104 51.321-15.239 7.216-44.105 7.618-607.367 7.618-566.495 0.013-592.156-0.388-607.797-7.605zM1260.554 728.286c7.216-3.205 18.444-12.434 24.856-20.845l11.629-14.834v-368.036c0-366.829 0-368.036-8.424-379.264-4.413-6.010-14.433-15.239-21.649-20.042l-13.227-9.229h-1192.306l-13.227 9.229c-7.618 4.816-17.237 15.239-21.649 22.857-8.424 14.031-8.424 18.043-8.424 376.85v362.819l9.617 15.64c6.010 9.617 16.031 18.043 26.062 22.857 15.64 7.216 39.692 7.618 604.966 7.618 494.327-0.013 590.546-0.819 601.774-5.62zM1161.264 494.756c-16.662 0-35.041-9.291-42.371-25.982l-77.888-178.54-28.053 178.54c-3.299 16.692-14.641 25.982-32.593 25.982h-98.673l84.397-296.516c1.555-5.687 1.849-11.992 0.712-18.622-4.417-24.743-28.053-44.819-52.81-44.819h-55.256c-14.033 0-23.273-8.691-27.79-28.37l-12.276-73.482h97.312c50.769 0 110.391 25.506 150.162 96.034l194.848 365.774zM203.381 583.249c29.14 0 43.223-11.625 38.096-40.838l-8.396-47.59h66.952l-14.752-83.606h-66.982l-18.247-103.516c-6.306-36.065 29.395-40.869 49.876-40.869 4.082 0 7.473 0.092 9.9 0.233l-16.377-93.23c-5.057-0.539-10.265-1.239-21.292-1.239-50.831 0-146.984 13.615-128.078 120.878l20.703 117.741h-48.809l14.692 83.606h48.332l15.555 88.427zM765.998 490.989l-17.201-97.474c21.211-10.835 35.741-32.836 35.741-58.251 0-33.508-25.121-60.962-57.459-64.911l-17.191-97.455c3.035-0.192 6.123-0.294 9.199-0.294 89.891 0 162.692 72.853 162.692 162.662 0 73.431-48.758 135.561-115.781 155.727zM689.435 276.993c-21.192 10.774-35.751 32.877-35.751 58.262 0 33.294 25.172 60.962 57.5 64.841l17.17 97.464c-3.056 0.192-6.163 0.335-9.219 0.335-89.82 0-162.662-72.902-162.662-162.641 0-73.463 48.779-135.631 115.802-155.797zM338.793 494.756h57.53c29.151 0 43.173-11.646 38.035-40.869l-6.295-35.354c21.434 43.506 67.927 79.401 115.619 79.401 6.255 0 12.277-1.239 12.277-1.239l-18.592-105.416c0 0-8.345 1.94-21.373 1.94-25.415 0-68.396-8.062-92.316-55.814-5.707-11.768-10.093-26.084-13.13-43.335l-20.814-118.433h-107.172z" />
<glyph unicode="&#xe925;" glyph-name="unionpay" horiz-adv-x="1314" d="M49.804 742.318c-20.443-9.229-39.692-32.476-45.298-54.931-6.010-23.648-6.010-706.804 0-728.453 5.204-18.845 28.866-46.104 46.505-53.721 10.826-4.413 118.269-5.217 607.77-5.217h594.946l17.639 9.229c9.617 5.204 23.26 17.237 29.672 26.467l12.032 17.237 1.207 361.209c0.805 253.778 0 366.024-3.205 376.85-5.62 19.651-26.062 42.494-46.104 51.321-15.239 7.216-44.105 7.618-607.367 7.618-566.495 0.013-592.156-0.388-607.797-7.605zM1260.554 728.286c7.216-3.205 18.444-12.434 24.856-20.845l11.629-14.834v-368.036c0-366.829 0-368.036-8.424-379.264-4.413-6.010-14.433-15.239-21.649-20.042l-13.227-9.229h-1192.306l-13.227 9.229c-7.618 4.816-17.237 15.239-21.649 22.857-8.424 14.031-8.424 18.043-8.424 376.85v362.819l9.617 15.64c6.010 9.617 16.031 18.043 26.062 22.857 15.64 7.216 39.692 7.618 604.966 7.618 494.327-0.013 590.546-0.819 601.774-5.62zM897.103 433.415c10.711 5.419 19.176 16.529 21.951 29.806 3.174 14.497-1.322 25.742-12.167 30.077-0.662 0-28.301 2.438-28.301 2.438l-5.289 0.543-0.264-2.302-0.264-3.116c0 0.135-13.356-59.477-13.356-59.477l-0.53-2.98h7.273c11.109 0.135 21.951 0.405 30.945 5.013zM903.981 248.21l-10.182-34.141c0 0 11.241 5.148 17.456 6.91 6.348 1.626 15.737 2.302 15.737 2.302l7.273 24.793h-30.286zM992.057 348.194c4.629 0 12.431 2.98 15.737 7.859 1.851 2.438 3.57 6.367 5.025 10.296 1.322 5.419 2.646 10.839 3.836 16.394 0.926 3.929 1.719 7.586 2.38 10.974 0.794 13.142-3.57 20.728-11.637 20.728-12.961 0-17.986-16.258-22.217-35.089-1.453-6.775-2.646-13.007-2.646-18.969 0.264-12.193 8.199-12.193 9.521-12.193zM585.403 350.091c4.629 0 8.729 3.116 12.167 8.13 5.025 6.775 8.729 22.896 9.521 27.095 4.363 19.509 3.836 31.568-6.348 31.568-12.829 0-17.986-16.258-22.217-35.632-1.587-6.638-2.778-12.871-2.646-18.831 0.264-12.329 8.199-12.329 9.521-12.329zM864.439 114.352h30.416l8.861 29.941h-30.416zM878.458 161.634c0 0 11.505 6.097 17.72 7.994 6.216 1.49 15.737 2.711 15.737 2.711l7.405 24.793h-30.548zM769.884 194.964l3.836 11.923h-44.963l-2.778-12.193h36.103c6.084 0.814 7.405-0.135 7.803 0.271zM786.019 247.261h-48.137l-4.495-19.78c4.363 1.897 9.788 3.658 15.869 4.743 4.495 0.949 32.533 0.678 32.533 0.678zM711.169 194.829v0l0.53 1.626zM704.555 170.847l-15.869-53.515c-1.453-5.284-2.247-7.859-1.19-9.213 0.53-0.949 1.719-1.897 3.306-2.438l14.811 65.303zM1242.925 735.674h-280.095c-3.306 0.678-7.142 1.083-11.637 1.083h-371.476c-3.174 0-6.216-0.135-9.389-0.543h-304.958c-45.227 0-90.323-37.8-100.903-84.134l-150.363-661.56c-10.578-46.199 17.456-83.999 62.551-83.999h323.206c3.174 0 6.216 0.135 9.389 0.543h318.314c-45.227 0-73.264 37.664-62.683 83.999l19.836 87.25h-3.306c-8.729 0-15.209 0.135-19.704 0.543-4.232 0.405-8.729 0-11.769 2.302-2.646 2.302-6.612 5.284-6.348 8.535 0.264 2.98 1.453 7.723 3.306 14.226l50.386 171.249h32.135l11.637 50.942c-5.819-0.135-11.903-0.271-21.424-0.814l-0.662 1.354c1.587 7.45 3.438 14.766 5.157 22.22l2.247 10.027c3.57 15.715 6.878 34.141 7.273 39.697 0.264 3.387 1.453 11.651-7.935 11.651-3.968 0-8.067-1.897-12.299-3.794-2.247-8.399-7.010-31.973-9.257-42.678-4.629-22.625-4.893-25.2-7.010-36.308l-1.453-1.49c-16.794 0.271-22.481 0.271-41.658-0.678l-0.926 1.626c3.306 13.412 6.348 27.095 9.521 40.373 8.067 36.446 9.92 50.399 12.167 68.96l1.453 1.083c18.779 2.575 23.408 3.251 43.642 7.586l1.587-2.032-3.042-11.651c3.306 2.032 6.746 4.199 10.182 6.097 9.521 4.743 20.366 6.233 26.185 6.233 4.1 0 8.331-0.543 12.035-2.168l48.005 211.081c9.521 41.729 47.080 76.549 87.414 83.051h14.679c-40.334-6.502-77.892-41.322-87.414-83.051l-51.046-224.764c2.38-8.942-0.132-20.458-4.761-41.051l-2.512-11.651c-5.289-25.336-6.084-30.077-8.993-47.418l-1.983-1.49c-1.719 0-3.306 0-4.761 0l-13.488-59.477c1.719 0.949 3.438 1.897 5.025 2.575 7.935 2.98 25.919 5.826 25.919 5.826l58.188 0.271-19.836-67.605c-3.306-11.651-7.142-19.104-9.653-22.491-2.115-3.522-4.761-6.367-9.788-9.213-5.025-2.711-9.389-4.335-13.62-4.743-3.836-0.271-9.788-0.405-17.852-0.543h-40.202l-14.547-64.354 11.637 1.219-8.463-29.4h-9.257l-19.836-87.115c-10.578-46.199 17.324-83.999 62.683-83.999h322.941c0.926 0 1.983 0 2.91 0.135 40.202 6.638 77.628 41.322 87.017 82.78l150.495 661.56c10.446 46.335-17.588 84.134-62.815 84.134zM280.71 339.117c-14.415-9.078-35.707-13.956-58.452-13.956-17.588 0-48.799 2.846-59.774 22.491-3.438 6.233-5.157 13.548-5.157 22.355l3.968 30.213 2.115 9.348 23.936 108.792c0 0 1.19 6.097 1.453 7.045 0.53-0.678 8.595-1.083 54.484-0.678-0.132-0.405-0.264-0.678-0.396-1.354-4.232-12.734-27.771-109.335-27.771-109.335-0.132-0.135-4.495-28.858-4.495-28.858l0.264-4.877c1.453-14.226 10.052-21.813 24.729-21.813 9.125 0 17.060 2.846 23.936 8.535 11.903 9.756 15.341 25.064 20.102 46.605 0.132 0 22.481 106.082 23.804 111.772 3.174-0.678 12.961-1.083 46.153-0.678-0.132-0.405-0.264-0.678-0.396-1.354-4.1-13.007-28.433-113.399-28.433-113.399l-2.778-10.703c-5.553-21.271-12.167-44.98-37.292-60.155zM451.173 386.807l-2.646-11.651c-5.157-25.336-6.084-30.077-8.993-47.418l-1.851-1.49c-13.752 0.135-19.969 0.271-33.061-0.405l-76.173-334.777c-10.578-46.199 17.324-83.999 62.551-83.999h-17.588c-45.227 0-73.264 37.664-62.683 83.999l95.216 419.047c-0.926 0.271-1.983 0.405-3.306 0.405-3.968 0-8.067-1.897-12.167-3.794-2.247-8.399-6.878-31.973-9.125-42.678-4.629-22.625-5.025-25.2-7.142-36.308l-1.453-1.49c-16.662 0.271-22.481 0.271-41.79-0.678l-0.926 1.626c3.306 13.412 6.48 27.095 9.521 40.373 8.067 36.446 9.92 50.399 12.299 68.96l1.453 1.083c18.779 2.575 23.408 3.251 43.642 7.586l1.719-2.032-3.042-11.651c3.438 2.032 6.746 4.199 10.314 6.097 2.247 1.083 4.495 2.032 6.878 2.846l48.269 212.3c9.521 41.729 47.080 76.549 87.414 83.051h17.588c-40.334-6.502-77.892-41.322-87.414-83.051l-47.476-208.915c0.264 0 0.662 0 0.926 0 8.861 0 18.647-2.575 22.746-13.142 3.968-9.484 1.453-21.135-3.704-43.897zM519.412 394.123c-1.851-7.994-3.704-15.851-5.421-23.71-3.704-16.799-5.157-23.031-5.951-27.503-0.926-4.199-1.058-6.638-2.512-15.309l-0.926-0.814-0.926-0.678c-9.788 0-16.134 0.271-22.217 0-6.084 0-12.035-0.405-21.16-0.814l-1.058 1.626c2.38 9.618 3.836 13.007 5.025 16.394s2.38 6.91 4.629 16.663c2.778 12.734 4.629 21.677 5.819 29.4 1.322 7.586 1.983 13.956 3.042 21.406l0.662 0.543 0.794 0.678c9.653 1.49 16.002 2.302 22.217 3.251 6.348 0.949 12.829 2.302 22.878 4.199l0.396-0.949 0.264-0.814c-1.851-7.586-3.704-15.445-5.553-23.574zM521.528 428.264c-10.845-7.723-26.978-9.348-35.971-3.929-9.125 5.553-7.935 16.123 3.042 23.71 10.845 7.723 26.846 9.348 35.971 3.794 9.125-5.284 7.669-15.851-3.042-23.574zM535.942 382.337c3.57 15.309 9.257 31.433 21.688 43.219 17.456 16.529 39.542 17.477 48.931 17.477 15.473 0 30.416-3.522 38.881-14.632 5.553-7.316 9.92-19.238 4.232-44.845-1.719-7.723-6.746-26.419-17.852-39.019-14.282-15.58-33.193-20.728-51.841-20.728-7.273 0-18.383 0.949-26.317 4.335-25.391 10.296-21.292 38.613-17.72 54.193zM663.030 190.899h-41.128l-6.348-21.406h42.185l-7.669-26.012h-42.053l-10.182-34.818c-1.19-3.794 9.92-4.47 14.018-4.47l21.028 2.98-8.463-28.722h-47.476c-3.836 0-6.746 0.543-10.845 1.49-3.968 0.949-5.687 2.846-7.537 5.691-1.719 2.846-4.363 5.148-2.512 11.245l13.62 46.199h-23.54l7.803 26.419h23.54l6.216 21.406h-23.276l7.405 25.2h103.019zM679.165 261.214l-7.803-26.285h-57.658l-6.348-5.553c-2.646-2.711-3.57-1.626-7.142-3.522-3.174-1.626-10.052-5.013-19.044-5.013h-18.515l7.405 25.336h5.553c4.761 0 7.935 0.405 9.521 1.49 1.851 1.083 3.968 3.794 6.216 8.264l10.578 19.645h42.053l-7.405-14.361zM1010.702 440.458c6.878-2.711 11.241-7.045 14.282-12.059 0.264 1.49 0.396 3.116 0.662 4.605l1.453 1.219c19.44 2.846 24.861 3.658 45.095 7.586l0.662-1.762c-3.704-15.715-7.405-31.433-10.977-47.148-7.405-33.057-10.182-49.859-13.092-67.063l-1.719-1.354c-19.572 0.135-25.259 0.135-43.376-0.678l-1.19 1.49c0.662 2.302 1.19 4.605 1.851 6.91-6.612-5.691-13.752-9.618-21.424-10.027-7.273-0.271-14.547 0.814-22.613 4.199-25.127 10.161-21.16 38.34-17.588 53.786 3.438 15.309 9.389 31.297 21.688 42.948 17.192 16.258 37.558 20.728 46.285 17.343zM787.472 325.705c1.453 5.962 31.475 133.044 31.475 133.044s12.563 59.882 12.563 59.882c0 0 1.058 4.743 1.453 7.316 5.819-0.678 19.836-0.949 55.015-0.543 0 0 13.488 0.135 13.488 0.135 27.507-0.135 51.178-0.405 63.213-17.477 4.761-6.502 6.348-14.632 6.348-23.031 0-6.233-0.926-12.734-2.115-18.020-4.893-21.677-15.869-39.561-31.607-51.618-23.408-17.612-53.295-17.612-79.743-17.612h-2.778c-1.983-1.083-3.836-3.794-3.836-3.794-0.396-0.949-6.348-26.961-6.348-26.961-0.132 0-7.142-35.498-8.463-41.456-5.421 0.405-18.119 0.405-48.666 0.135zM798.977 149.848c-1.453-5.013-2.646-8.942-6.348-12.193-3.968-3.387-8.595-7.045-19.308-7.045l-19.969-0.814-0.132-18.29c-0.264-5.284 1.058-4.743 1.851-5.553 0.926-0.949 1.719-1.354 2.646-1.626l6.348 0.271 19.044 1.083-7.803-26.825h-21.951c-15.341 0-26.714 0.405-30.416 3.387-3.704 2.302-4.232 5.419-4.1 10.432l1.453 71.67h34.781l-0.53-14.632h8.463c2.91 0 4.761 0.271 6.084 1.083 0.926 0.814 1.851 1.897 2.38 3.794l3.438 11.381h27.507zM921.305 78.449h-37.426l2.512 8.67h-76.173l7.669 25.471h7.669l39.938 135.482 7.935 27.368h38.218l-3.968-13.818c0 0 10.182 7.586 19.836 10.161 7.935 2.032 47.212 3.116 60.568 3.387v0.135h40.864l0.396-15.58c-0.132-2.575 1.983-3.794 6.746-3.794h8.331l-7.537-25.742h-22.085c-19.044-1.49-26.317 6.91-25.787 16.394l-0.396 15.175-4.1-13.683h-13.092l-39.408-133.449h10.578l-8.199-27.503h-10.578zM1090.315 197.132h-40.996l-6.48-20.864h41.128l-6.746-22.896h-44.434l-7.935-9.756h17.986l4.363-28.858c0.53-2.846 0.53-4.743 1.453-5.962 0.926-1.083 6.216-1.626 9.521-1.626h5.421l-8.331-28.044h-13.886c-2.247 0-5.289 0.135-9.653 0.405-4.232 0.271-7.142 2.846-9.92 4.199-2.512 1.219-6.348 4.47-7.142 9.756l-4.363 28.992-20.102-28.317c-6.48-8.942-15.209-15.851-29.887-15.851h-28.301l7.405 25.064h10.845c3.174 0 5.951 1.354 7.935 2.302 2.115 0.949 3.968 2.032 6.084 5.148l29.359 42.543h-38.881l6.612 22.896h44.434l6.348 20.864h-43.906l7.537 25.876h122.194zM1098.91 247.125c-5.025-9.484-14.282-16.529-28.961-16.529l-25.127 0.405 7.405 24.928h4.893c2.512 0 4.363 0.271 5.819 0.949 1.322 0.405 2.247 1.354 3.306 2.846l8.861 14.632c12.431 19.509 15.605 27.909 28.697 49.993-2.38 24.793-3.438 32.787-5.289 49.045-1.19 9.756-2.646 19.645-3.704 29.4-2.38 20.052-1.851 17.207-4.232 29.941l-0.132 0.405c0.132 0.678 0.132 1.49 0.264 2.168l1.587 1.354c19.44 2.575 19.969 3.251 40.864 7.316l1.719-1.762 2.778-55.412c0.132-1.219 0.132-1.897 0.132-3.116 11.241 25.471 10.711 18.426 24.466 51.078l0.132-0.271c0.132 0.271 0.132 0.678 0.264 0.814l1.322 1.354c18.515 2.575 22.085 3.251 42.185 7.316l1.453-1.762z" />
<glyph unicode="&#xe926;" glyph-name="verve" horiz-adv-x="1314" d="M471.595 401.797c-19.247 91.53-100.45 160.248-197.704 160.248-111.578 0-202.029-90.451-202.029-202.029s90.451-202.029 202.029-202.029c65.327 0 123.412 31.005 160.342 79.104 20.531-33.882 58.001-47.259 98.145-47.259 42.169 0 72.288 12.049 72.288 12.049l-6.025 48.191c0 0-30.118-9.044-60.238-9.044-60.241 0-63.251 45.188-63.251 45.188h135.539c6.022 36.142 0 126.503-90.358 126.503-18.093 0-34.556-3.804-48.735-10.922zM70.107 737.736h1174.35c38.721 0 70.109-31.39 70.109-70.109v-685.329c0-38.721-31.39-70.109-70.109-70.109h-1174.35c-38.721 0-70.109 31.39-70.109 70.109v685.329c0 38.721 31.39 70.109 70.109 70.109zM273.89 273.478c45.186 102.433 78.321 198.118 78.321 198.118h69.278c0 0-42.166-122.819-120.488-276.412h-54.224c-78.321 153.593-120.488 276.412-120.488 276.412h69.278c0 0 33.136-95.686 78.321-198.118zM1241.032 286.214c6.025 36.142 0 126.503-90.358 126.503-60.241 0-102.407-42.167-102.407-108.432 0-84.333 54.216-114.456 114.454-114.456 42.169 0 72.291 12.049 72.291 12.049l-6.025 48.191c0 0-30.12-9.044-60.241-9.044-60.241 0-63.251 45.188-63.251 45.188h135.539zM1147.662 370.55c39.154 0 42.166-42.167 42.166-42.167h-84.333c0 0 3.012 42.167 42.169 42.167zM775.303 357.828l9.035 48.192c0 0-69.781 21.176-126.503-18.072v-192.763h60.243l-0.005 156.619c24.095 18.072 57.229 6.024 57.229 6.024zM517.315 370.55c-39.154 0-42.166-42.167-42.166-42.167h84.333c0 0-3.012 42.167-42.169 42.167zM921.605 267.429c-18.724 45.539-33.831 92.484-45.179 140.398l-60.236-0.008c0 0 30.118-116.287 81.325-212.643h48.178c51.207 96.358 81.325 212.623 81.325 212.623h-60.236c-11.351-47.904-26.457-94.84-45.179-140.369z" />
<glyph unicode="&#xe927;" glyph-name="x" d="M185.865 809.491c-46.392-6.006-89.512-26.883-123.117-60.058-34.497-33.747-50.258-62.918-58.287-108.676-5.948-34.605-5.948-553.679 0-586.282 15.167-81.508 73.751-141.852 157.91-163.3 19.627-5.148 38.362-5.434 319.39-5.434 336.638 0 315.821-1.144 366.079 22.308 48.772 22.879 91.486 75.375 110.222 128.283l5.523 40.93-1.253 270.355v278.091l-1.53 26.897c-12.787 37.179-34.155 74.808-60.622 99.689-28.549 26.883-56.205 41.755-99.921 53.767-14.275 4.004-53.232 4.575-306.305 5.148-159.398 0.286-297.978-0.572-308.089-1.716zM376.784 581.27c1.487-1.144 32.117-39.753 67.803-85.512 35.686-46.045 66.019-83.796 67.209-83.796s8.922 6.864 16.653 15.443c8.029 8.294 45.499 46.903 82.97 85.798l68.398 70.354h23.197c12.49 0 22.898-0.572 22.898-1.43 0-1.43-139.175-145.569-181.999-188.754l-11.3-11.725 97.541-125.836c53.827-69.21 101.407-129.268 105.571-133.272 4.46-4.29 8.030-8.866 8.030-10.010 0-3.432-149.286-1.144-153.747 2.574-2.082 1.716-34.199 42.041-71.075 89.801s-68.992 86.941-71.074 86.941c-2.379 0-6.245-2.574-8.624-6.006s-13.978-16.016-26.17-28.027c-11.896-12.012-39.254-39.753-60.369-61.774s-48.473-50.049-60.666-62.060l-22.304-22.308h-22.006c-12.49 0-21.412 1.144-20.816 2.574 0.595 1.716 21.709 24.595 47.284 50.907 133.525 138.134 151.368 156.723 151.368 158.439 0 1.144-44.012 58.915-98.136 128.124-53.827 69.496-98.137 127.552-98.137 128.982 0 3.432 142.447 4.004 147.502 0.572zM308.179 545.807c2.142-3.146 137.41-173.025 272.067-340.901l45.906-57.484 29.991-0.858c19.892-0.572 29.686 0.286 29.686 2.288 0 1.716-11.629 17.445-25.401 35.177-22.035 27.455-125.476 157.295-252.787 316.592-19.28 24.309-36.725 45.186-38.561 46.33-1.53 1.144-16.526 2.288-33.052 2.288-23.259 0-29.38-0.858-27.849-3.432z" />
<glyph unicode="&#xe928;" glyph-name="x-no-boder" horiz-adv-x="1002" d="M1.671 849.818c0-0.25 87.631-127.979 194.725-283.859 107.179-155.88 194.808-283.859 194.892-284.361 0.083-0.417-87.463-102.667-194.558-227.054-107.095-124.471-194.808-226.636-194.892-226.971-0.167-0.417 18.629-0.669 43.105-0.585l43.523 0.25 170.667 198.401c93.896 109.1 171.084 198.318 171.501 198.318 0.501 0 62.152-89.301 137.085-198.401l136.333-198.318 148.446-0.25c125.389-0.167 148.362 0 148.028 1.002-0.25 0.585-91.306 133.325-202.327 294.886-111.020 161.645-201.659 294.301-201.492 294.803 0.334 0.752 359.962 419.106 370.488 431.052 1.169 1.336-0.919 1.42-42.521 1.336h-43.774l-161.561-187.959c-88.8-103.336-161.728-187.875-162.062-187.875-0.25 0-58.559 84.54-129.567 187.959l-129.065 187.875-148.446 0.083c-81.7 0-148.529-0.167-148.529-0.334zM568.637 338.32c171.753-245.599 312.596-447.091 312.931-447.759 0.585-0.919-10.86-1.086-67.748-1.086h-68.417l-131.571 188.209c-72.344 103.419-212.519 303.908-311.426 445.42s-180.524 258.297-181.443 259.634l-1.588 2.255h136.918l312.345-446.673z" />
<glyph unicode="&#xe929;" glyph-name="message-opened-backcolor" horiz-adv-x="1101" d="M227.809 398.534l-149.112 148.357 9.812 5.71c24.914 14.498 461.038 265.089 461.731 265.304 0.683 0.212 464.645-265.55 471.242-269.932 2.215-1.471-14.416-18.756-142.399-148.002l-144.906-146.336-87.411-0.934c-48.076-0.514-128.459-1.292-178.628-1.729l-91.217-0.795z" />
</font>
</defs>
</svg>
