<?xml version="1.0" standalone="no"?>
<!DOCTYPE svg PUBLIC "-//W3C//DTD SVG 1.1//EN" "http://www.w3.org/Graphics/SVG/1.1/DTD/svg11.dtd" >
<svg xmlns="http://www.w3.org/2000/svg">
<metadata>Generated by IcoMoon</metadata>
<defs>
<font id="font-netcomponents" horiz-adv-x="1024">
<font-face units-per-em="1024" ascent="877.8572825024438" descent="-146.14271749755622" />
<missing-glyph horiz-adv-x="1024" />
<glyph unicode="&#x20;" horiz-adv-x="256.25024437927664" d="" />
<glyph unicode="&#xe900;" glyph-name="clipboard-technical-data" horiz-adv-x="741" d="M142.115 359.296h86.2v-376.983h-86.2v376.983zM206.097 850.106h335.806v-163.902h-335.806v163.902zM644.456 801.189v0h-642.285v-972.135h735.43l1.077 972.249zM647.164-85.507l-555.218-0.283 0.649 800.405h277.841l273.802 1.088 2.925-267.103zM389.777 214.84h86.2v-232.528h-86.2v232.528zM511.613 115.042h86.2v-132.729h-86.2v132.729zM144.137 604.817h454.766v-83.869h-454.766v83.869zM283.017 536.559h315.885v-99.48h-315.885v99.48zM426.343 465.502h172.56v-112.292h-172.56v112.292zM262.571 289.804h86.2v-307.492h-86.2v307.492z" />
<glyph unicode="&#xe901;" glyph-name="add-part-disabled" d="M1023.822 491.978h-358.129v358.129h-304.836v-358.129h-360.26v-304.822h360.26v-360.275h304.836v360.275h358.129z" />
<glyph unicode="&#xe902;" glyph-name="authorized" horiz-adv-x="928" d="M309.369 2.351l-72.507-175.483h-236.862l309.369 683.926c0-0.071 144.261 339.298 144.261 339.298s157.506-339.369 157.506-339.298l316.915-683.926h-248.942l-78.519 175.483h-291.221zM567.392 118.075c0 0-99.594 275.12-114.786 315.707l-110.097-315.707h224.882z" />
<glyph unicode="&#xe903;" glyph-name="certifications" horiz-adv-x="1207" d="M189.979 477.795h834.866v-92.972h-834.866v92.972zM189.979 291.809h834.866v-93h-834.866v93zM189.979 105.853h834.866v-93h-834.866v93zM373.932 661.762h463.009v-92.972h-463.009v92.972zM0-127.329h1207.462v-46.443h-1207.462v46.443zM0 849.467h1207.462v-46.414h-1207.462v46.414zM0 833.393h46.485v-982.708h-46.485v982.708zM1158.034 831.93h49.427v-982.68h-49.427v982.68zM988.862 218.649l21.701-37.902 33.866 27.443 6.622-43.16 41.512 13.401-9.436-42.621 43.544-2.558-24.202-36.31 39.664-18.162-35.614-25.040 30.455-31.251-42.435-10.53 17.168-40.147-43.316 5.542 1.435-43.672-38.285 20.791-14.339-41.213-28.338 33.226-28.31-33.226-14.354 41.213-38.328-20.791 1.435 43.672-43.33-5.542 17.196 40.147-42.392 10.53 30.399 31.251-35.614 25.040 39.707 18.162-24.259 36.31 43.573 2.558-9.45 42.621 41.526-13.401 6.636 43.16 33.837-27.443z" />
<glyph unicode="&#xe904;" glyph-name="close" horiz-adv-x="1023" d="M511.627 850.106c-282.538 0-511.627-229.060-511.627-511.613 0-282.566 229.089-511.613 511.627-511.613 282.552 0 511.627 229.046 511.627 511.613 0 282.552-229.075 511.613-511.627 511.613zM511.627-135.046c-261.505 0-473.497 212.006-473.497 473.497 0 261.547 211.992 473.568 473.497 473.568 261.576 0 473.596-212.006 473.596-473.568 0-261.49-212.021-473.497-473.596-473.497zM511.712 706.315c-203.138 0-367.877-164.725-367.877-367.75 0-203.181 164.739-367.906 367.877-367.906 203.081 0 367.821 164.725 367.821 367.906 0 203.025-164.753 367.75-367.821 367.75zM721.459 186.403l-57.755-57.727-152.048 152.034-151.991-152.019-57.84 57.727 152.091 152.048-152.106 152.034 57.84 57.712 152.005-151.991 152.034 151.991 57.755-57.712-152.048-152.048 152.062-152.048z" />
<glyph unicode="&#xe905;" glyph-name="delete" horiz-adv-x="1028" d="M984.641 58.742l-280.761 278.942 280.704 278.942c55.425 55.027 58.295 142.299 6.225 194.697-52.099 52.426-139.315 50.095-194.853-4.818l-281.898-280.094-281.941 280.094c-55.496 54.913-142.697 57.244-194.825 4.818-52.057-52.397-49.214-139.684 6.225-194.697l280.676-278.942-280.747-278.942c-55.382-55.126-58.21-142.314-6.21-194.938 52.114-52.298 139.315-50.095 194.754 5.031l282.068 280.222 282.068-280.222c55.425-55.126 142.612-57.315 194.739-5.031 52.014 52.625 49.157 139.813-6.225 194.938z" />
<glyph unicode="&#xe906;" glyph-name="document-data-sheet-locator" horiz-adv-x="741" d="M185.048 664.76h93.043v-93.028h-93.043v93.028zM185.048 477.752h93.043v-93.028h-93.043v93.028zM185.048 292.435h373.036v-93.028h-373.036v93.028zM185.048 106.378h373.036v-93.028h-373.036v93.028zM554.9 757.178h93v-93.014h-93v93.014zM648.128 663.467v-93.355h-184.948v188.401h91.081v91.592h-554.261v-1023.224h741.127v836.586h-93zM649.989-83.188l-559.519-0.298 0.654 842.469h279.994v-279.994h278.871v-562.177z" />
<glyph unicode="&#xe907;" glyph-name="edit" horiz-adv-x="1031" d="M782.909 850.092l-670.183-672.287-112.725-350.924 358.925 111.631 671.96 666.233-247.975 245.347zM595.986 478.036l207.914 208.397 64.96-64.747-207.828-208.325-65.046 64.676z" />
<glyph unicode="&#xe908;" glyph-name="expand-collapse" horiz-adv-x="1192" d="M395.121 793.317h-338.332v-338.303h113.663v224.739h224.668zM338.346 850.092h-338.346v-338.275h113.677v224.697h224.668zM1192.34 455.014v338.303h-338.204v-113.677h224.654v-224.626zM1137.911 511.817v338.275h-338.232v-113.677h224.654v-224.597zM55.112 165.143v-338.261h338.232v113.635h-224.668v224.626zM0.668 221.903v-338.261h338.232v113.663h-224.668v224.597zM854.137-173.119h338.204v338.261h-113.663v-224.739h-224.541zM799.678-116.357h338.232v338.261h-113.663v-224.711h-224.569zM799.338-3.974h223.888v-58.182h-223.888v58.182zM114.004-3.974h223.888v-58.182h-223.888v58.182zM234.219 595.849h734.575v-508.671h-734.575v508.671z" />
<glyph unicode="&#xe909;" glyph-name="help" horiz-adv-x="1023" d="M511.613 850.106c-282.552 0-511.613-229.060-511.613-511.613s229.060-511.613 511.613-511.613c282.566 0 511.613 229.060 511.613 511.613s-229.046 511.613-511.613 511.613zM579.231 3.431h-147.501v141.205h147.486v-141.205zM730.98 424.174c-7.831-18.943-17.508-35.145-29.119-48.574s-24.458-24.912-38.499-34.35c-14.126-9.507-27.428-18.959-39.948-28.452-12.52-9.45-23.619-20.337-33.341-32.53-9.75-12.179-15.831-27.485-18.361-45.832v-34.818h-126.809v41.199c1.876 26.292 7.063 48.305 15.505 66.055 8.441 17.693 18.319 32.857 29.603 45.363 11.227 12.477 23.151 23.35 35.685 32.516 12.52 9.124 24.089 18.304 34.775 27.528 10.644 9.181 19.228 19.228 25.822 30.228s9.536 24.77 8.897 41.284c0 28.081-7.021 48.859-21.104 62.289-14.126 13.43-33.667 20.181-58.707 20.181-16.926 0-31.479-3.197-43.686-9.621-12.179-6.438-22.284-15.008-30.071-25.694-7.802-10.701-13.628-23.208-17.366-37.519-3.752-14.41-5.685-29.83-5.685-46.343h-138.079c0.64 33.041 6.423 63.213 17.338 90.741 11.014 27.528 26.334 51.374 46.045 71.526 19.739 20.181 43.544 35.855 71.384 47.196 27.897 11.298 59.092 16.983 93.497 16.983 44.496 0 81.574-5.969 111.39-17.849 29.702-11.966 53.662-26.788 71.825-44.481 18.162-17.764 31.151-36.794 38.982-57.301 7.817-20.45 11.752-39.593 11.752-57.301 0.028-29.304-3.923-53.463-11.724-72.422z" />
<glyph unicode="&#xe90a;" glyph-name="language-flag" horiz-adv-x="950" d="M0 850.106h120.143v-1023.224h-120.143v1023.224zM148.424 797.779c0 0 81.346 52.312 207.245 52.312s193.617-26.15 193.617-26.15v-496.733c0 0-100.631 30.924-200.368 30.924-99.864 0-200.481-44.553-200.481-44.553v484.199zM950.135 237.621c0 0-81.36-52.298-207.245-52.298s-193.603 26.15-193.603 26.15v496.704c0 0 100.617-31.038 200.368-31.038 99.736 0 200.495 44.568 200.495 44.568v-484.085z" />
<glyph unicode="&#xe90b;" glyph-name="message-opned-read" horiz-adv-x="1100" d="M350.98 230.401l-282.155-305.432v-55.354l332.206 360.786zM757.996 221.292l271.566-296.323v-55.354l-321.662 351.676zM947.748 615.731h-39.679l138.107-81.73-24.529-25.439v-601.272h-942.93v596.611l-29.574 30.099 139.556 81.73h-33.013l-155.686-83.194v-705.655h1100.365v705.655zM319.275 235.148h463.293v-76.244h-463.293v76.244zM397.21 210.917l-318.991 322.16h-52.355l371.346-374.173zM705.542 210.917l319.019 322.16h52.326l-371.346-374.173zM1022.442 534.001l-472.289 271.51v44.596l548.562-316.106zM77.865 534.001l472.289 271.51v44.596l-548.534-316.106z" />
<glyph unicode="&#xe90c;" glyph-name="new-message" horiz-adv-x="1427" d="M491.205 391.602l-401.943-437.513v-71.782l466.875 509.295zM933.536 391.602l401.957-437.513v-71.782l-466.903 509.295zM101.001 850.106l612.655-612.627v-100.517l-711.539 713.144zM1326.284 850.106l-612.627-612.627v-100.517l711.553 713.144zM0 850.106v-1023.238h1427.299v1023.238h-1427.299zM1325.189-68.835h-1223.080v814.629h1223.080v-814.629z" />
<glyph unicode="&#xe90d;" glyph-name="price-tag" horiz-adv-x="1038" d="M359.124-95.013l-0.526-78.106-357.902 362.747 670.027 660.477h231.845l135.123-134.725-56.107-9.209-94.548 92.943-181.551-0.099-622.731-613.735 272.206-276.157zM1037.691 715.382l-57.414 8.982 0.114-193.134-621.552-623.229 0.043-78.76 678.81 679.919zM902.569 668.982c0-30.595-24.802-55.396-55.396-55.396s-55.396 24.802-55.396 55.396c0 30.595 24.802 55.396 55.396 55.396s55.396-24.802 55.396-55.396zM1006.185 478.206v0l-35.43-35.444c1.89-7.163-1.621 7.376 0 0 8.612-39.238 13.387-81.275 13.387-123.142 0-160.661-70.404-312.808-157.164-312.808-60.683 0-113.223 74.369-139.443 173.906l-35.287-36.040c33.596-114.715 99.196-192.636 174.73-192.636 109.67 0 198.591 164.611 198.591 367.565 0 56.789-17.239 151.494-19.384 158.6zM793.553 680.72c-0.839-3.809-1.279-7.703-1.279-11.738 0-11.782 3.724-22.653 9.977-31.635 8.243 3.055 16.599 5.074 25.211 5.074 17.892 0 35.088-6.935 51.076-19.314 0.043 0 0.085-0.071 0.085-0.071 12.279 8.285 20.905 21.36 23.477 36.552-23.036 17.295-48.234 26.859-74.639 26.859-11.568 0-22.866-2.217-33.908-5.728zM901.745 659.516c-23.094 17.366-48.305 26.93-74.766 26.93-109.726 0-198.619-164.541-198.619-367.522 0-63.341 8.64-122.901 23.889-174.943l35.287 36.054c-11.284 42.933-17.764 90.456-17.764 138.875 0 160.632 70.361 323.51 157.208 323.51 17.892 0 35.074-6.935 51.076-19.314z" />
<glyph unicode="&#xe90e;" glyph-name="print" horiz-adv-x="1069" d="M231.533 850.092h603.916v-159.168h-603.916v159.168zM790.768 337.57h44.695v-510.703h-44.695v510.703zM231.533 337.57h44.71v-277.72h-44.71v277.72zM464.516-126.561h370.933v-46.556h-370.933v46.556zM276.242 59.85h188.273v-186.412h-47.423v47.523h-46.699v45.676h-46.499v48.987h-47.651zM276.242 102.598h228.25v-42.748h-228.25v42.748zM464.516 59.85h39.963v-186.412h-39.963v186.412zM0.426 615.333v-415.571h135.904v231.107h797.106v-231.121h135.947v415.586h-1068.957zM953.83 501.641c-23.066 0-41.753 18.645-41.753 41.739 0 23.080 18.674 41.739 41.753 41.739s41.725-18.645 41.725-41.739c0-23.080-18.659-41.739-41.725-41.739z" />
<glyph unicode="&#xe90f;" glyph-name="search-disabled" d="M1024.432-70.654l-103.133-102.465-327.034 328.91 103.147 102.479zM365.93 850.092c-202.115 0-365.93-163.773-365.93-365.859 0-202.101 163.815-365.888 365.93-365.888 202.058 0 365.888 163.787 365.888 365.888-0.014 202.086-163.83 365.859-365.888 365.859zM365.93 223.040c-144.275 0-261.164 116.932-261.164 261.192 0 144.246 116.889 261.164 261.164 261.164 144.261 0 261.164-116.917 261.164-261.164-0.014-144.261-116.917-261.192-261.164-261.192z" />
<glyph unicode="&#xe910;" glyph-name="bars" horiz-adv-x="741" d="M142.115 359.296h86.2v-376.983h-86.2v376.983zM389.777 214.84h86.2v-232.528h-86.2v232.528zM511.613 115.042h86.2v-132.729h-86.2v132.729zM262.571 289.804h86.2v-307.492h-86.2v307.492z" />
<glyph unicode="&#xe911;" glyph-name="shopping-cart" horiz-adv-x="1382" d="M643.921 203.868l-320.383 427.466 16.684 12.605 320.355-427.595zM481.982 203.868l-293.609 394.609 16.712 12.634 293.538-394.766zM1148.513 359.271l-201.845 265.982 16.712 12.634 201.788-266.11zM1230.811 447.368l-135.648 179.135 16.712 12.634 135.591-179.263zM1069.383 250.568l-284.613 375.935 16.684 12.634 284.556-376.021zM952.025 202.135l-319.26 423.117 16.698 12.634 319.218-423.231zM797.973 203.357l-319.26 423.146 16.684 12.634 312.623-414.52zM1104.031 639.137l-312.183-413.724 9.607-22.057 319.218 423.259zM633.914 216.465l319.263 423.157 16.677-12.582-319.263-423.157-16.677 12.582zM472.146 216.457l319.263 423.157 16.677-12.582-319.263-423.157-16.677 12.582zM322.682 216.465l319.272 423.168 16.688-12.591-319.272-423.168-16.688 12.591zM490.054 639.137l-241.325-319.786 16.684-12.648 241.282 319.914zM418.968 93.431c-73.346 0-132.764-59.517-132.764-132.821s59.418-132.849 132.764-132.849 132.778 59.546 132.778 132.863-59.432 132.806-132.778 132.806zM461.574-82.037h-85.197v85.283h85.197v-85.283zM968.681 93.431c-73.36 0-132.792-59.517-132.792-132.821s59.432-132.849 132.792-132.849c73.331 0 132.764 59.546 132.764 132.863s-59.432 132.806-132.764 132.806zM1011.259-82.037h-85.183v85.283h85.183v-85.283zM268.17 667.162h1113.752v-23.222h-1113.752v23.222zM181.452 805.255c0-25.226-20.45-45.719-45.719-45.719h-90.015c-25.268 0-45.719 20.493-45.719 45.719v0c0 25.24 20.45 45.733 45.719 45.733h90.001c25.268 0 45.733-20.493 45.733-45.733v0zM275.801 330.777c0-26.859-21.133-48.475-47.182-48.475v0c-26.035 0-47.168 21.616-47.168 48.475v380.312c0 26.675 21.133 48.447 47.168 48.447v0c26.049 0 47.182-21.772 47.182-48.447v-380.312zM340.179 199.563c17.964-32.857 14.567-69.11-7.631-81.289v0c-22.213-12.137-54.699 4.719-72.621 37.361l-67.32 123.413c-17.992 32.843-14.567 69.139 7.631 81.275v0c22.184 12.165 54.671-4.704 72.578-37.347l67.362-123.413zM275.801 155.635c0-25.737 20.862-46.6 46.542-46.6h648.695c25.652 0 46.514 20.876 46.514 46.6v0c0 25.779-20.876 46.485-46.514 46.485h-648.695c-25.68 0.014-46.542-20.692-46.542-46.485v0zM256.886 685.85c-17.835-17.95-49.399-15.235-70.546 5.997l-75.307 75.107c-21.133 21.246-23.719 52.824-5.884 70.588v0c17.821 17.992 49.441 15.263 70.546-5.799l75.293-75.307c21.133-21.048 23.733-52.796 5.898-70.588v0zM935.369 186.858l323.155 456.898h123.399l-374.187-516.387z" />
<glyph unicode="&#xe912;" glyph-name="trade-association" horiz-adv-x="1885" d="M464.075 636.877v213.228h494.772v-213.214h-149.263v-810.010h-198.335v809.996h-147.174zM1319.334 850.106l185.502-1023.224h-211.097l-20.294 179.121h-157.818l-20.266-179.121h-207.928l182.333 1023.224h249.568zM1193.478 640.871l-54.401-434.217h110.92l-54.373 434.217h-2.146zM1876.878 655.082c-66.637 178.652-539.083 166.672-1055.228-26.788-516.103-193.432-880.456-495.084-813.776-673.708 66.637-178.652 539.068-166.672 1055.214 26.803 516.103 193.404 880.499 495.070 813.791 673.694zM1050.283 15.923c-391.653-146.79-757.471-136.316-817.045 23.406-59.603 159.68 209.591 408.153 601.23 554.943 391.653 146.79 757.4 136.316 817.016-23.392 59.603-159.666-209.605-408.153-601.201-554.957z" />
<glyph unicode="&#xe913;" glyph-name="warning1" horiz-adv-x="1183" d="M592.703 850.106l-592.703-1023.224h1183.644l-590.941 1023.224zM592.276 544.957c54.217 0 87.657-30.91 87.657-88.452 0-34.221-17.565-102.621-25.069-135.194l-42.564-176.080h-43.401l-46.728 201.945c-7.518 34.221-17.48 69.253-17.48 104.284 0 66.794 35.031 93.497 87.586 93.497zM592.276-68.323c-47.537 0-86.747 39.195-86.747 86.747 0 46.742 39.209 86.775 86.747 86.775 47.551 0 86.761-40.034 86.761-86.775 0-47.565-39.223-86.747-86.761-86.747z" />
<glyph unicode="&#xe914;" glyph-name="warning2" horiz-adv-x="1183" d="M592.703 850.106l-592.703-1023.224h1183.644l-590.941 1023.224zM591.793 801.659l548.974-950.818h-1097.92l548.946 950.818zM568.899 145.246l-46.728 201.945c-7.518 34.221-17.48 69.253-17.48 104.312 0 66.751 35.031 93.454 87.586 93.454 54.217 0 87.642-30.867 87.642-88.452 0-34.221-17.565-102.621-25.054-135.194l-42.564-176.080h-43.401zM592.276-68.323c-47.537 0-86.747 39.238-86.747 86.747 0 46.742 39.209 86.775 86.747 86.775 47.551 0 86.761-40.034 86.761-86.775 0-47.523-39.209-86.747-86.761-86.747z" />
<glyph unicode="&#xe915;" glyph-name="world-globe" horiz-adv-x="1694" d="M601.955 196.948c-1.293 1.179-27.499 24.714-34.079 32.97-6.225 8.328-18.333 10.431-24.927 13.913-6.409 3.368-48.902 17.324-58.807 9.892-10.246-7.333-24.188-11.44-29.517 0-5.13 11.839-7.873 13.373-15.547 15.277-7.347 1.606-3.51 10.459-4.065 18.432-0.725 7.888-4.932 16.159-10.246 10.431-5.13-5.556-23.463-20.237-26.021-12.805-2.772 7.262-15.391 37.391 3.866 42.961 19.030 5.585 34.988 2.274 39.948-2.743 4.733-4.846 8.243-19.058 14.268-17.324 5.884 1.919 2.573 12.477 4.761 21.175 2.203 8.953 16.116 20.592 22.554 33.070 6.054 12.165 7.347 19.526 15.022 22.724 8.243 3.382 12.449 7.859 19.796 13.373 7.703 5.657 19.413 10.644 23.648 13.345 4.221 2.942 23.279 12.307 29.886 10.83 6.21-1.777 10.431 0.341 5.13 9.806-5.13 9.692-12.108 38.086-22.184 50.92-10.275 12.848-11.355 16.258-15.96 28.423-4.932 12.165-10.445 22.795-13.928 14.538-3.852-8.328-11.724-19.498-15.946-9.067-4.206 10.801-3.852 10.133-9.181 15.107-5.301 5.017-9.692 6.125-17.196 8.328-7.347 2.316-14.666-0.626-14.311-7.689 0.768-7.148-6.935-20.237-2.004-29.801 4.761-9.493 8.982-19.399 2.772-22.61-6.636-3.481 0-23.548-6.636-23.108-6.225 0.469-9.308-0.44-9.308 6.822 0 7.12 3.098 18.39-8.797 18.39-11.724 0-18.347 6.125-26.959 12.307-8.413 6.026-15.363 2.615-13.359 16.755 2.203 13.913-0.938 18.858 8.427 26.448 9.72 7.987 11.91 12.463 18.688 9.195 6.964-3.41 11.738-3.41 16.144 0.541 4.206 3.951 12.080 2.373 12.080 7.219 0 4.946-8.982 4.946-7.859 13.217 0.881 8.583 5.102 3.908 6.751 17.921 1.663 13.942-10.062 35.216-21.8 32.374-11.554-2.672-29.674-18.987-33.355-11.639-3.852 7.12-11.341 4.008-25.652-1.208-14.283-4.846-74.041 5.045-78.234 10.161 0 0-10.076 7.262-15.561 3.41-5.13-4.050-26.391-2.203-32.999-1.108-6.409 1.108-12.265-7.418-20.166-4.619-8.044 2.871-36.097 8.356-42.692 12.848-6.395 4.419-15.76 4.419-20.166 6.793-4.206 2.174-19.768 3.311-22.908-1.179-3.112-4.505-14.851-12.406-20.876-17.992-5.685-5.485-12.435-4.476-6.594-16.215 5.671-11.639-15.036-18.688-9.72-31.606 5.13-12.719-1.123-47.551 20.152-53.947 21.275-6.822 38.84-10.901 51.119-0.626 12.477 9.863 31.151 9.863 36.85-1.208 5.87-11.27 9.152-27.854 28.025-37.391 19.058-9.635 35.77-37.021 34.648-49.086-0.91-12.307 0.739-52.981 20.152-76.515 19.796-23.179 39.948-65.671 41.398-55.708 1.663 10.062 1.663 20.053 6.253 12.904 4.022-7.418 15.178-29.603 33.341-33.355 18.162-4.206 27.301-5.414 34.093-12.009 6.779-6.694 12.833-10.488 20.152-13.913 7.518-3.41 25.652-13.373 29.333-19.996 3.809-6.666 2.188-15.661-1.663-25.723-3.481-10.104-7.873-19.967-2.573-29.702 5.301-9.422 16.485-36.751 25.481-42.876 9.166-6.253 18.12-16.13 15.946-30.057-2.004-13.913-12.080-73.843-10.986-87.059 0.895-13.373-12.477-57.443-1.478-75.279 10.459-17.792 28.579-23.463 36.453-21.261 8.072 2.373 1.848 2.8-1.99 11.369-3.866 8.228-3.325 18.759 1.066 26.646 4.405 7.873 4.405 12.179 2.032 21.175-2.032 8.783-1.108 13.999 4.221 20.493 5.485 6.694 27.655 24.742 34.619 32.644 6.978 7.589 50.778 61.266 56.632 65.671 5.884 4.419 18.872 15.107 23.293 31.876 4.405 16.585 19.768 49.654 9.138 57.912-10.815 8.555-50.024 14.666-51.886 15.817v0zM708.597 763.246c2.942 6.054 10.275 20.763 14.297 28.863h-168.577c1.819-8.897 9.365-42.165 8.044-55.552-1.819-15.746 3.141-10.232 7.333-16.386 4.235-6.125 3.112-15.476 0.369-22.738-2.558-7.333-4.192-23.619 4.405-42.407 8.441-19.157 18.517-43.075 27.144-44.169 8.413-1.066 6.409-13.174 12.279-8.697 5.855 4.419 6.751 14.311 11.724 28.863 4.761 14.481 4.761 25.211 17.040 32.374 12.293 7.12 46.187 30.697 53.89 39.025 7.489 8.328 15.931 11.639 13.16 26.249-2.757 14.311-5.301 26.249-1.108 34.577v0zM1539.058 601.988c-6.579 4.476-44.88 35.003-61.181 31.237-16.684-4.050-46.017 8.897-50.764 11.639-4.775 2.644-43.999 14.851-64.889 15.647-10.246 0.298-53.648 9.906-71.782 17.792-18.177 7.902-33.553 46.088-68.201 40.133-4.391-0.938-46.159-6.68-56.789-16.116-10.83-9.706-15.405-20.606-21.261-22.908-5.884-2.373-22.923-1.108-22.923-9.521 0-8.427 5.855-34.008-1.080-28.963-6.964 4.96-13.928 16.684-17.011 7.788-3.141-9.067-8.626-13.913-11.738-10.53-3.112 3.268-19.257 0-21.261-5.585-2.188-5.685-22.923-18.532-31.89-20.365-9.166-1.435-12.833-6.054-17.764-8.228-4.79-2.274-40.872-19.058-47.836-12.805-6.779 6.125-9.010 2.203-13.203 1.066 0 0-12.79 2.401-20.876 12.108-8.072 10.261-9.72 6.85-18.716 16.116-8.783 9.792-11.142 19.157-20.138 15.15-8.783-3.88-47.267-43.373-62.289-61.237-14.851-17.764-41.256-36.281-28.053-48.831 13.203-13.018 20.138-11.298 21.8-18.603 1.635-7.361 3.297-15.221 5.315-17.964 2.018-2.843 14.836-12.648 21.275 0.541 6.579 13.472 7.489 23.008 14.822 20.635 7.689-2.046 8.968-7.163 5.499-17.253-3.852-10.062-6.594-25.652-19.455-24.983-12.605 0.469-26.362 8.427-30.583 6.579-4.192-1.478-6.935-5.585-11.724-9.323-4.932-3.951-19.768-22.27-29.858-25.311-10.076-2.543-22.355-0.27-15.576-8.598 6.95-8.626 17.239-27.115 7.503-26.377-9.493 0.541-25.623 2.373-26.561-7.333-0.924-9.465-5.329-15.15-3.112-21.459 2.188-6.95 8.996-19.853 17.608-15.377 8.427 4.476 24.912 8.996 29.105 19.129 4.221 9.991 9.166 20.99 19.796 20.621 10.474-0.541 36.296-14.481 34.477-19.498-1.463-4.875-6.608-16.84-0.383-12.733 6.239 3.752 11.738 8.257 15.59 9.792 3.481 1.805 8.427-5.585 9.892-8.328 1.635-2.942 12.293-8.356 14.467 0.64 2.061 8.882 4.249 2.103 10.459-0.64 6.594-2.942 25.652-4.988 28.395-7.163 2.587-2.103 8.441-8.996 1.123-17.964-7.731-8.683-16.144-12.364-28.423-5.585-12.279 6.694-25.453-5.599-39.238 1.094-13.899 6.694-7.659 16.13-23.989 22.908-16.286 6.694-53.876-1.663-65.43-4.988-11.738-3.268-12.449-4.476-17.239-10.133-4.561-5.599-36.083-41.711-36.083-62.303 0-20.734 11.738-76.529 49.456-70.929 37.945 5.585 60.668 2.203 56.462-8.897-4.221-11.071-1.819-14.084 4.747-26.859 6.978-12.833 22.923-98.017 25.68-112.028 2.587-14.013-2.203-31.734 15.377-29.062 17.792 2.828 36.467 7.361 43.416 23.563 7.717 16.13 8.811 34.449 18.361 43.984 9.507 9.323 21.218 9.323 22.341 22.795 0.91 13.486-2.587 45.15 3.852 52.568 6.225 7.191 36.083 40.702 39.394 54.089 2.914 13.274 7.333 16.585-4.79 16.585-12.449 0-33.355 1.805-39.010 12.805-5.855 11.17-19.796 32.601-19.796 37.561 0 4.846 8.427 4.419 12.819-6.125 4.192-10.63 19.243-42.435 36.281-35.728 16.869 6.765 40.872 14.496 41.583 25.098 0.369 10.63-7.689 22.738-16.286 22.27-8.427-0.682-17.437 5.671-17.437 11.625 0 6.125 1.663 3.852 11.738 0 10.090-3.752 13.373-10.459 28.594-11.625 15.576-1.108 33.169-16.031 41.583-22.908 8.47-6.793 23.477-52.412 27.144-57.088 3.837-4.476 8.072-4.476 11.91 4.676 3.467 8.897 19.626 37.561 28.778 45.334 8.968 7.489 9.323 18.333 14.822 11.639 5.329-6.879 28.196-23.648 29.702-33.383 1.635-10.232-1.108-31.961 3.695-25.268 4.917 6.793 8.741 20.621 12.79 14.41 4.192-6.154 4.192-15.519 14.297-8.257 10.246 7.049 27.868 9.892 18.148 25.581-9.379 15.561-3.141 25.083 2.743 25.453 5.855 0.839 45.804 7.902 46.884 29.702 1.307 21.8-13.913 33.44-6.935 44.61 6.935 11.17 17.040 21.261 19.214 14.68 2.245-6.793-5.272-28.594 4.050-25.211 9.72 3.481 20.876 3.481 20.876 10.076 0 6.879-2.188 23.563 2.387 27.84 4.221 4.59 35.359 34.107 39.223 45.917 3.852 11.468 10.83 21.8 4.604 30.597-5.685 8.797-15.96 6.125-7.717 17.324 7.717 11 21.261 21.332 31.337 22.071 32.417 3.013 23.094-36.921 23.818-45.818 0.355-9.067 0.355-31.237 5.329-20.067 4.747 11 10.246 24.742 19.768 34.079 9.72 9.735 15.050 15.689 15.405 24.003 0.753 8.626 1.279 11.369 10.275 15.746 9.166 4.519 48.93 20.237 52.596 30.796 3.837 10.431-4.576 20.024 4.747 19.228 9.72-0.44 18.674-11 23.648-5.216 4.576 5.216 15.377 15.277 14.68 20.905-0.597 6.026-16.144 18.83-22.412 23.25v0zM1367.184 414.61c-3.297-7.319-4.974-8.527-9.72-23.648-4.946-14.836-3.268-10.901-7.888-20.592-4.946-9.465-12.819-10.474-20.706-16.585-8.072-6.324-10.048-18.432-10.048-18.432-6.964-9.635 28.039 13.373 40.275 20.734 12.108 7.12 8.996 15.377 10.104 27.001 1.080 12.080 4.192 13.444 9.521 18.759 5.301 4.889 1.108 14.951-1.449 22.113-2.729 7.333-6.978-2.132-10.090-9.351v0zM1257.969 161.192c3.667 2.743 1.137 9.067 6.992 7.902 5.855-1.094 11.156-4.32 18.12-0.668 6.964 4.036 12.819 2.302 11.71 8.925-1.307 6.822 0 15.561-1.635 21.133-1.663 5.685-11.184 7.333-18.148 1.208-6.935-6.168-16.286-15.689-16.286-12.165 0 3.112 4.022 12.165 2.032 17.75-2.032 5.599 0.881 10.644-9.72 5.955-10.63-4.419-16.485-3.212-20.181-9.365-3.639-6.225-7.888-16.854-14.467-10.133-6.239 6.765-24.955 20.606-24.955 20.606-1.449 1.904-22.71 19.129-15.348 7.319 7.333-11.625 18.517-31.677 23.989-38.854 5.13-7.418 11.014-15.746 17.409-11.895 6.438 4.107 7.518 5.102 15.96 0 8.399-4.974 20.862-10.545 24.529-7.717v0zM1388.26 176.867c-10.076 4.547-5.855 8.441-17.964 10.644-12.265 2.16-22.341 0-25.808 2.16-3.141 2.487-19.072 7.802-16.712 0 2.032-7.888 16.315-9.962 20.181-12.335 3.667-2.203-5.329-7.092 1.635-11.227 6.636-3.752 11.539-10.972 20.535-8.669 9.138 2.274 12.265-2.942 19.768-4.107 7.361-1.037 14.851 1.165 11.738 4.476-3.297 3.368-5.102 7.902-4.747 11.696 0.526 4.164 1.449 2.956-8.626 7.361v0zM1383.116 127.112c-3.852 11.27-12.819 31.976-15.022 21.8-2.032-9.892-16.485-17.324-21.814-16.585-4.946 0.469-2.188 5.585-2.188 10.161 0 4.419-2.743 8.626-14.822 5.315-12.293-3.112-14.851-15.008-18.148-14.098-3.112 1.265-11.738 3.567-17.040-2.487-5.13-6.225-10.076-17.964-16.315-20.237-6.579-2.203-27.868-4.875-27.868-13.928 0-9.010 5.357-22.184 4.974-29.674-0.753-7.049-10.431-23.634 2.558-28.849 7.546-3.055 12.662-3.339 21.459 1.165 8.243 4.419 45.079 16.13 50.024 12.265 4.775-4.008 12.265-13.274 15.76-14.951 6.964-4.079 8.598-13.543 17.565-15.803 8.996-2.316 15.96-3.311 19.825-3.311s17.040 4.476 20.152 12.265c3.112 7.902 8.996 26.292 11.738 35.287 2.715 8.683 5.272 18.858-2.743 26.646-7.916 7.532-24.401 24.017-28.096 35.017v0zM1220.21 850.092h-747.253c-261.121 0-472.957-210.017-472.957-468.992v-85.24c0-259.018 211.836-468.992 472.957-468.992h747.267c261.135 0 472.971 209.974 472.971 468.992v85.24c0 258.975-211.85 468.992-472.986 468.992zM1620.987 301.559c0-229.046-193.716-414.761-432.639-414.761h-683.529c-238.923 0-432.625 185.715-432.625 414.761v75.307c0 228.975 193.702 414.662 432.625 414.662h683.529c238.923 0 432.639-185.701 432.639-414.676v-75.293z" />
<glyph unicode="&#xe916;" glyph-name="document" horiz-adv-x="741" d="M554.9 757.178h93v-93.014h-93v93.014zM648.128 663.467v-93.355h-184.948v188.401h91.081v91.592h-554.261v-1023.224h741.127v836.586zM649.989-83.188l-559.519-0.298 0.654 842.469h279.994v-279.994h278.871z" />
<glyph unicode="&#xe917;" glyph-name="document-text" horiz-adv-x="741" d="M185.048 664.76h93.043v-93.028h-93.043v93.028zM185.048 477.752h93.043v-93.028h-93.043v93.028zM185.048 292.435h373.036v-93.028h-373.036v93.028zM185.048 106.378h373.036v-93.028h-373.036v93.028z" />
<glyph unicode="&#xe918;" glyph-name="sponsored" d="M1034.156-50.161l-125.917-128.918-202.090 223.171 125.934 128.936zM476.69 850.092c-263.291 0-476.69-192.934-476.69-431.006 0-238.088 213.398-431.039 476.69-431.039 263.217 0 476.633 192.951 476.633 431.039-0.018 238.070-213.417 431.006-476.633 431.006zM476.69 111.386c-187.944 0-340.212 137.753-340.212 307.7 0 169.931 152.269 307.667 340.212 307.667 187.925 0 340.212-137.737 340.212-307.667-0.018-169.948-152.306-307.7-340.212-307.7zM649.125 502.13q0-28.368-14.602-50.887-14.271-22.519-53.764-47.377l-25.223-16.085q-22.567-14.33-33.851-28.952-10.952-14.622-11.948-32.169h-88.611q1.991 29.83 18.916 53.226 17.258 23.396 50.445 43.868 35.511 21.641 50.113 38.018 14.602 16.669 14.602 36.849 0 25.736-19.249 40.651-18.916 14.915-54.096 14.915-33.52 0-56.419-17.255-22.567-17.255-26.55-45.623l-94.584 3.509q8.961 59.367 55.423 92.414t120.803 33.047q78.655 0 123.458-31.585 45.135-31.293 45.135-86.566zM418.472 202.076v78.961h95.912v-78.961z" />
<glyph unicode="&#xe920;" glyph-name="bccard" horiz-adv-x="1313" d="M49.76 755.437c-20.426-9.225-39.65-32.438-45.259-54.876-6.002-23.622-6.002-706.128 0-727.747 5.2-18.832 28.831-46.061 46.451-53.664 10.82-4.407 118.147-5.208 607.176-5.208h594.372l17.621 9.225c9.607 5.2 23.24 17.21 29.651 26.436l12.011 17.21 1.212 360.864c0.801 253.525 0 365.662-3.196 376.482-5.619 19.634-26.044 42.454-46.061 51.269-15.226 7.212-44.057 7.603-606.786 7.603-565.942 0.008-591.577-0.382-607.213-7.594zM1259.35 741.423c7.212-3.196 18.422-12.421 24.833-20.817l11.619-14.815v-367.675c0-366.483 0-367.675-8.424-378.904-4.407-6.002-14.425-15.226-21.637-20.017l-13.214-9.225h-1191.158l-13.214 9.225c-7.603 4.818-17.21 15.226-21.637 22.829-8.424 14.016-8.424 18.032-8.424 376.482v362.467l9.607 15.617c6.002 9.607 16.020 18.032 26.044 22.829 15.617 7.212 39.65 7.603 604.39 7.603 493.854-0.008 589.974-0.811 601.198-5.619zM165.973 430.602l19.21 19.372c3.196 3.231 5.345 6.463 7.475 10.767 2.13 6.464 3.196 10.767 3.196 13.998 0 11.839-12.801 6.463-18.146 1.071-5.345-7.534-11.735-13.998-18.146-21.533zM192.669 357.388c12.801 9.695 22.406 17.241 27.751 24.775 6.41 7.534 7.475 22.604 4.261 32.311-3.196 7.534-9.606 9.695-22.406 3.231-7.485-7.534-14.95-16.141-23.471-23.675 3.196-16.18 7.475-30.159 13.866-36.623zM377.353 617.928c53.382 3.231 86.488-13.998 96.094-50.611-20.276-3.231-39.497-6.474-59.772-9.695-6.41 16.141-19.21 26.906-39.487 23.675-29.881-4.303-42.712-17.211-42.712-47.349 3.196-43.076 19.222-63.519 52.317-66.751 29.881 0 46.972 17.241 43.777 50.611 20.276 2.161 41.647 4.303 62.988 6.474 10.67-55.985-10.67-92.597-66.183-108.738-29.881-7.546-64.052-12.909-92.88-4.303-37.356 11.839-68.313 55.985-70.462 94.74-2.13 36.602 18.146 77.518 51.252 95.8 17.052 8.595 38.422 13.969 65.107 16.13zM388.023 657.756c-59.772 0-113.155-17.241-155.867-53.824-45.908-36.602-75.788-79.66-89.674-136.716 7.475 10.767 13.866 20.443 20.276 30.139 12.801 20.443 29.881 33.381 45.908 43.076 36.291 10.767 43.777-12.909 20.276-73.196 42.712 0 59.772-30.139 49.103-89.355-3.196-17.211-12.831-33.381-36.301-47.349-19.21-16.17-33.077-33.381-42.682-49.521-42.712 36.614-62.988 100.133-56.577 183.024-3.196-16.141-6.41-36.602-6.41-60.288 0-69.993 23.471-129.181 72.593-179.793 50.187-49.51 108.883-73.196 179.338-73.196 69.398 0 124.909 23.685 175.077 73.196 49.092 50.621 75.788 109.809 75.788 179.793s-26.696 130.271-75.788 180.863c-50.187 49.5-105.699 73.185-175.077 73.185zM1124.623 63.51c-211.378-33.381-429.157-29.078-654.391 10.757-69.398 9.695-62.988 26.917 20.276 46.289 187.878 30.139 399.246 26.906 634.116-6.464 76.853-20.443 76.853-36.614 0-50.581z" />
<glyph unicode="&#xe921;" glyph-name="dinacard" horiz-adv-x="1313" d="M49.754 755.436c-20.423-9.218-39.653-32.445-45.252-54.876-6.005-23.626-6.005-706.112 0-727.744 5.199-18.827 28.839-46.058 46.461-53.67 10.815-4.409 118.155-5.211 607.176-5.211h594.364l17.623 9.218c9.608 5.199 23.236 17.221 29.641 26.441l12.020 17.221 1.207 360.855c0.805 253.53 0 365.668-3.204 376.483-5.614 19.633-26.036 42.452-46.058 51.272-15.223 7.209-44.063 7.612-606.774 7.612-565.944 0.013-591.581-0.389-607.202-7.598zM1259.318 741.417c7.209-3.204 18.426-12.422 24.831-20.826l11.619-14.821v-367.68c0-366.47 0-367.68-8.415-378.892-4.409-6.005-14.42-15.223-21.626-20.022l-13.214-9.218h-1191.144l-13.214 9.218c-7.612 4.81-17.221 15.223-21.626 22.836-8.415 14.018-8.415 18.023-8.415 376.483v362.464l9.608 15.627c6.005 9.608 16.014 18.023 26.036 22.836 15.627 7.209 39.653 7.612 604.376 7.612 493.845-0.013 589.97-0.819 601.188-5.614zM629.445 605.078c-72.555-8.001-129.090-31.754-177.006-74.13-23-20.251-42.984-44.38-56.4-68.005l-5.476-9.5-288.849-0.751-7.805-2.751c-18.070-6.248-30.256-17.501-36.825-34.128l-3.286-8.127v-138.76l3.149-8.001c7.94-20.003 25.6-33.378 47.913-36.379 5.476-0.751 65.572-1.247 147.436-1.247h138.401l3.835-7.127c10.404-19.376 29.57-43.754 48.736-62.13 45.587-43.502 101.44-70.257 167.697-80.256 21.358-3.252 68.037-3.252 88.981 0 29.706 4.499 62.287 13.877 85.561 24.501 53.939 24.627 102.946 68.379 129.779 115.882l5.066 9 143.739 0.376c135.526 0.376 144.152 0.5 151.271 2.751 11.088 3.373 18.209 7.625 25.872 15.253 8.487 8.502 13.141 17.378 15.058 28.878 1.916 11.751 2.053 124.134 0 135.385-3.558 20.503-17.934 36.751-39.29 44.128l-7.805 2.751-288.849 0.751-3.423 5.876c-38.469 67.754-105.272 117.511-183.577 137.010-24.914 6.126-43.67 8.502-72.417 8.875-14.647 0.25-28.885 0.127-31.487-0.127zM1210.292 441.442c16.699-4.001 29.57-15.502 34.498-31.002 1.916-5.876 2.053-15.502 1.78-74.754l-0.409-68.005-3.835-7.501c-6.433-12.499-17.248-21.127-31.074-24.876-6.71-1.749-59.275-1.998-555.794-1.998s-549.087 0.25-555.794 1.998c-8.897 2.374-15.605 6.248-22.042 12.499-13.69 13.501-13.553 13.001-13.553 90.506 0 69.382 0.272 73.131 6.57 82.381 3.423 5.123 11.498 12.626 16.838 15.751 12.182 7.248-29.843 6.751 566.609 6.751 482.281 0.127 549.361-0.127 556.205-1.749zM282.416 391.438l-3.423-3.001v-105.134h19.165v80.633l44.903-41.001c42.437-38.755 45.176-40.878 49.831-40.878 3.835 0 5.752 0.751 7.805 3.252 2.876 3.252 2.876 4.625 2.876 56.254v53.004h-19.165v-40.128c0-24.753-0.55-39.88-1.369-39.629-0.684 0.25-20.945 18.252-44.903 40.128-39.016 35.376-44.216 39.629-48.051 39.629-2.876 0-5.611-1.126-7.667-3.126zM488.855 391.812c-2.736-2.626-71.597-106.506-71.597-107.882 0-0.376 5.202-0.626 11.498-0.626h11.637l9.036 14.126c31.761 49.254 45.312 69.629 45.86 69.629 0.823 0 25.19-37.502 25.735-39.629 0.409-1.247-3.835-1.624-18.070-1.624h-18.482l-4.108-6.751c-2.325-3.627-4.244-7-4.244-7.501 0-0.376 12.729-0.751 28.473-0.751l28.337-0.127 8.351-13.377 8.487-13.377 12.456-0.376c6.844-0.127 12.456 0 12.456 0.376 0 1.499-68.721 105.007-71.597 107.882-1.78 1.749-4.377 2.751-7.12 2.751s-5.339-0.999-7.12-2.751zM841.224 393.066c-1.916-1.499-69.814-103.51-71.733-108.011-0.55-1.375 1.369-1.749 10.815-1.749 9.308 0 11.637 0.376 12.87 2.25 0.823 1.126 13.006 20.003 27.244 41.753 14.1 21.877 26.146 39.504 26.694 39.128 1.232-0.626 26.010-38.628 26.010-39.88 0-0.376-8.213-0.751-18.343-0.751h-18.209l-4.929-7.127-4.792-7.248 28.473-0.376 28.612-0.25 18.070-27.502h12.321c6.844 0 12.182 0.5 11.912 0.999-1.506 3.373-69.132 105.134-71.323 107.508-3.149 3.126-9.995 3.749-13.69 1.247zM88.711 338.309v-55.006h39.564c35.73 0 40.385 0.25 48.46 2.499 33.948 9.625 50.239 47.879 33.814 79.506-4.377 8.376-14.1 17.501-23 21.625-12.047 5.627-19.028 6.377-60.099 6.377h-38.743zM175.639 370.188c13.826-6.248 20.397-16.877 20.125-32.504-0.137-14.126-6.844-24.876-19.714-31.378l-7.253-3.627-59.549-0.751v72.755l58.182-0.751zM236.145 392.436c-0.55-0.376-0.959-25.128-0.959-55.006v-54.13h21.903v110.007h-9.995c-5.611 0-10.539-0.376-10.951-0.876zM676.127 391.314c-25.872-6.377-41.206-25.625-41.206-51.755 0-23.628 11.36-41.376 32.581-51.004l10.404-4.625 80.22-0.751v18.874h-34.634c-42.437 0-45.996 0.751-56.674 10.626-10.815 10.124-13.964 23.251-9.172 38.003 2.603 8.127 11.088 17.001 19.714 20.625 5.752 2.374 9.036 2.626 43.534 3.001l37.234 0.376v18.626l-37.234-0.127c-28.203 0-39.151-0.5-44.763-1.877zM940.197 338.309v-55.006h20.534l0.272 45.378 0.409 45.252h36.962c34.773 0 37.234-0.127 41.753-2.499 6.981-3.875 10.129-9.5 10.129-18.752 0-9-3.011-14.751-10.129-19.001-4.377-2.751-5.752-2.876-33.675-2.876h-29.297v-17.501l23-0.127h22.859l14.782-15.001 14.923-14.877h29.16l-12.321 11.499c-6.844 6.377-13.006 12.001-13.826 12.499s-3.149 2.876-5.066 5.25l-3.696 4.251 6.161 3.252c8.624 4.625 14.1 12.626 16.699 23.876 1.78 8.502 1.78 10.375-0.137 18.874-2.465 11.126-6.71 17.627-14.782 23.002-10.539 7-14.647 7.501-67.080 7.501h-47.639zM1093.521 338.434v-55.129h39.427c41.206 0 47.094 0.626 58.455 5.876 10.539 5 18.070 12.377 24.23 23.751l5.888 10.75-0.137 15.127c0 17.001-1.506 22.127-9.719 33.002-5.888 7.876-15.332 14.503-26.010 18.126-7.393 2.499-10.815 2.751-49.965 3.126l-42.163 0.376zM1179.491 371.562c8.213-3.252 17.523-13.126 20.262-21.751 6.161-19.376-4.929-40.626-24.23-45.754-5.476-1.499-13.826-1.998-34.363-1.998h-27.104v35.376c0 19.503 0.409 35.877 0.959 36.379 0.684 0.5 13.964 0.751 29.843 0.5 23.958-0.376 29.706-0.876 34.634-2.751z" />
<glyph unicode="&#xe922;" glyph-name="elo" horiz-adv-x="1313" d="M49.755 755.436c-20.423-9.22-39.653-32.444-45.254-54.877-6.004-23.625-6.004-706.114 0-727.742 5.199-18.827 28.838-46.059 46.46-53.669 10.815-4.409 118.154-5.212 607.176-5.212h594.365l17.622 9.22c9.608 5.199 23.237 17.22 29.643 26.441l12.020 17.22 1.206 360.856c0.804 253.53 0 365.667-3.202 376.482-5.615 19.632-26.037 42.453-46.059 51.271-15.224 7.209-44.062 7.611-606.774 7.611-565.942 0.013-591.578-0.388-607.203-7.598zM1259.323 741.419c7.209-3.202 18.426-12.422 24.832-20.825l11.618-14.82v-367.677c0-366.471 0-367.677-8.416-378.894-4.409-6.004-14.419-15.224-21.628-20.022l-13.214-9.22h-1191.142l-13.214 9.22c-7.611 4.811-17.22 15.224-21.628 22.835-8.416 14.017-8.416 18.025-8.416 376.482v362.465l9.608 15.625c6.004 9.608 16.015 18.025 26.037 22.835 15.625 7.209 39.653 7.611 604.375 7.611 493.844-0.013 589.969-0.818 601.186-5.615zM258.218 462.917c13.113 4.371 27.099 6.702 41.611 6.702 63.524 0 116.558-45.107 128.679-105.077l90.040 18.358c-20.631 101.87-110.729 178.565-218.721 178.565-24.768 0-48.487-4.022-70.751-11.481zM151.976 171.174l60.901 68.827c-27.158 24.070-44.292 59.211-44.292 98.374 0 39.104 17.135 74.248 44.292 98.258l-60.901 68.885c-46.157-40.912-75.296-100.647-75.296-167.143 0-66.554 29.138-126.29 75.296-167.202zM428.508 312.034c-12.18-59.911-65.156-104.961-128.622-104.961-14.569 0-28.615 2.33-41.67 6.761l-29.138-87.185c22.263-7.402 46.040-11.422 70.808-11.422 107.873 0 197.914 76.578 218.662 178.332zM597.283 237.145c-2.972 4.78-6.935 12.413-9.383 18.067-14.279 33.102-14.919 67.371-2.915 100.239 13.229 36.075 38.522 63.64 71.217 77.744 41.087 17.658 86.486 14.22 125.882-9.15 25.002-14.336 42.719-36.483 56.181-67.836 1.69-4.022 3.205-8.276 4.721-11.947zM679.34 379.986c-29.198-12.53-44.233-39.921-41.087-71.974l123.551 53.208c-21.271 24.943-48.896 33.219-82.465 18.766zM777.189 264.245c-0.059 0-0.059-0.059-0.059-0.059l-2.564 1.749c-7.402-11.947-18.882-21.679-33.394-27.974-27.625-12.006-53.208-8.918-71.625 7.226l-1.69-2.564c0 0 0 0.059-0.059 0.059l-31.355-46.915c7.809-5.42 16.144-9.966 24.884-13.637 34.617-14.395 70.050-13.695 104.961 1.456 25.235 10.956 45.050 27.625 58.569 48.78zM928.831 502.197v-260.74l40.563-16.434-23.019-53.732-44.758 18.648c-10.025 4.371-16.902 11.015-22.029 18.532-4.953 7.634-8.625 18.183-8.625 32.287v261.438zM1033.85 307.837c0 22.205 9.849 42.135 25.352 55.656l-41.611 46.389c-28.208-24.943-45.982-61.368-45.982-101.93-0.059-40.62 17.716-77.103 45.865-102.046l41.553 46.389c-15.444 13.578-25.177 33.394-25.177 55.54zM1107.746 233.882c-8.16 0-16.085 1.399-23.428 3.846l-19.873-59.037c13.578-4.546 28.090-7.051 43.242-7.051 65.855-0.059 120.811 46.682 133.574 108.748l-61.076 12.471c-6.935-33.743-36.716-59.037-72.44-58.978zM1107.921 444.034c-15.094 0-29.606-2.447-43.185-6.935l19.698-59.095c7.402 2.447 15.27 3.789 23.428 3.789 35.783-0.059 65.622-25.468 72.383-59.27l61.076 12.355c-12.53 62.183-67.487 109.098-133.4 109.157z" />
<glyph unicode="&#xe923;" glyph-name="rupay" horiz-adv-x="1313" d="M49.755 755.437c-20.423-9.22-39.653-32.444-45.254-54.877-6.004-23.625-6.004-706.114 0-727.742 5.199-18.827 28.838-46.059 46.46-53.669 10.815-4.409 118.154-5.212 607.176-5.212h594.365l17.622 9.22c9.608 5.199 23.237 17.22 29.643 26.441l12.020 17.22 1.206 360.856c0.804 253.53 0 365.667-3.202 376.482-5.615 19.632-26.037 42.453-46.059 51.271-15.224 7.209-44.062 7.611-606.774 7.611-565.942 0.013-591.578-0.388-607.203-7.598zM1259.323 741.419c7.209-3.202 18.426-12.422 24.832-20.825l11.618-14.82v-367.677c0-366.471 0-367.677-8.416-378.894-4.409-6.004-14.419-15.224-21.628-20.022l-13.214-9.22h-1191.142l-13.214 9.22c-7.611 4.811-17.22 15.224-21.628 22.835-8.416 14.017-8.416 18.025-8.416 376.482v362.465l9.608 15.625c6.004 9.608 16.015 18.025 26.037 22.835 15.625 7.209 39.653 7.611 604.375 7.611 493.844-0.013 589.969-0.818 601.186-5.615zM208.769 455.849c-3.606-7.209-76.505-220.282-76.505-224.289 0-0.804 15.625-0.804 34.842-0.401l34.441 1.206 12.811 38.044c10.010 30.433 14.419 38.448 21.227 39.251 10.412 1.609 14.419-6.004 20.423-39.251 8.014-43.66 4.007-40.054 46.862-40.054 27.633 0 37.643 1.206 37.643 5.199 0 12.422-20.825 78.1-27.633 86.918l-7.209 10.010 22.433 12.020c36.451 19.618 60.076 63.278 47.667 89.316-9.608 20.022-29.241 25.635-99.327 28.034-60.464 2.010-63.265 1.609-67.674-6.004zM296.075 404.577c5.212-5.199 5.212-7.611-0.804-20.022-6.808-14.419-25.635-26.037-42.856-26.037-9.608 0-9.608-0.804-2.398 18.426 14.419 40.054 13.615 38.849 27.633 36.048 6.821-1.596 15.224-5.199 18.426-8.416zM647.335 459.454c-1.206-2.398-18.426-51.672-38.044-109.738-20.022-58.079-37.254-108.533-38.849-112.54-2.398-6.406 0-7.209 32.845-6.004l35.646 1.206 12.020 35.243c11.618 33.65 12.409 34.842 24.43 34.842 20.825 0 58.467 8.416 74.495 16.416 33.65 17.22 54.072 42.856 63.278 80.512 6.406 25.234-1.997 45.254-22.835 54.072-18.426 8-138.59 12.797-142.987 5.99zM734.24 402.178c5.615-8.805 0.401-26.441-11.217-38.044-7.209-7.209-14.017-9.608-26.426-9.608-11.618 0-16.028 1.609-14.419 5.199 0.804 2.398 5.212 15.224 9.22 28.034l7.209 23.237 15.625-1.206c9.193-0.804 17.608-4.007 20.007-7.611zM877.227 395.774c-36.852-6.808-39.251-8.416-46.059-29.643-3.606-11.217-6.004-20.825-5.199-21.628s9.206 1.206 18.827 4.409c22.433 7.611 50.066 8.805 58.079 1.997 10.412-8.818 7.611-11.618-12.422-14.419-62.475-8.416-87.709-21.227-101.725-51.271-10.412-22.835-9.608-37.24 2.398-48.859 15.625-16.028 48.47-12.409 77.295 8.416 8.818 6.808 8.818 6.808 5.199-4.007l-4.409-10.412h63.278l16.817 47.264c26.842 75.3 28.034 94.529 6.406 110.543-8.416 6.406-17.622 8.416-39.653 8.818-16.015 0.401-33.233 0-38.836-1.206zM887.236 288.032c-12.409-18.827-38.044-23.237-38.044-6.406 0 10.412 9.608 17.622 27.231 20.825 17.22 2.801 20.022-0.401 10.815-14.419zM388.996 333.3c-23.625-70.085-24.832-82.911-10.010-97.731 9.206-8.818 12.811-10.010 32.041-8.416 16.028 1.596 26.441 5.199 39.653 14.419l17.622 12.422-3.606-10.010c-2.398-5.615-4.007-10.815-4.007-12.020s15.625-1.206 34.842-0.804l34.441 1.206 25.234 74.093c13.615 40.859 26.037 77.295 27.633 81.302 2.801 6.406 0.401 7.209-32.041 6.004l-35.243-1.206-13.615-40.054c-7.209-22.032-16.028-46.46-19.618-54.474-10.010-23.237-37.643-30.433-37.643-10.010 0 4.798 7.209 30.433 16.028 56.47s16.028 48.056 16.028 48.859c0 0.804-15.224 1.206-33.636 1.206h-33.65l-20.449-61.255zM1001.384 383.365c0-6.004 2.801-43.66 6.004-82.911l6.406-72.096-14.82-13.214c-14.017-13.214-23.237-15.224-45.268-8.416-6.004 1.609-22.032-38.849-18.426-47.264 1.206-3.606 10.815-5.199 30.835-5.199 34.441 0 55.265 8.818 80.499 33.65 13.656 14.017 141.404 191.444 146.217 203.451 0.804 1.997-13.615 3.202-31.64 2.398l-33.65-1.206-29.643-51.271c-16.416-28.034-30.044-50.467-30.433-50.066-0.804 0.804 1.206 24.027 3.606 52.464l4.798 50.87h-74.482v-11.189z" />
<glyph unicode="&#xe924;" glyph-name="troy" horiz-adv-x="1313" d="M49.755 755.437c-20.423-9.22-39.653-32.444-45.254-54.877-6.004-23.625-6.004-706.114 0-727.742 5.199-18.827 28.838-46.059 46.46-53.669 10.815-4.409 118.154-5.212 607.176-5.212h594.365l17.622 9.22c9.608 5.199 23.237 17.22 29.643 26.441l12.020 17.22 1.206 360.856c0.804 253.53 0 365.667-3.202 376.482-5.615 19.632-26.037 42.453-46.059 51.271-15.224 7.209-44.062 7.611-606.774 7.611-565.942 0.013-591.578-0.388-607.203-7.598zM1259.323 741.419c7.209-3.202 18.426-12.422 24.832-20.825l11.618-14.82v-367.677c0-366.471 0-367.677-8.416-378.894-4.409-6.004-14.419-15.224-21.628-20.022l-13.214-9.22h-1191.142l-13.214 9.22c-7.611 4.811-17.22 15.224-21.628 22.835-8.416 14.017-8.416 18.025-8.416 376.482v362.465l9.608 15.625c6.004 9.608 16.015 18.025 26.037 22.835 15.625 7.209 39.653 7.611 604.375 7.611 493.844-0.013 589.969-0.818 601.186-5.615zM1160.13 508.117c-16.646 0-35.007-9.282-42.33-25.957l-77.812-178.366-28.026 178.366c-3.296 16.676-14.627 25.957-32.561 25.957h-98.577l84.315-296.226c1.553-5.681 1.847-11.98 0.711-18.604-4.413-24.719-28.026-44.775-52.758-44.775h-55.202c-14.019 0-23.25-8.683-27.763-28.342l-12.264-73.41h97.217c50.719 0 110.283 25.481 150.015 95.94l194.658 365.417zM203.182 596.523c29.112 0 43.181-11.614 38.059-40.798l-8.388-47.544h66.887l-14.738-83.524h-66.917l-18.229-103.415c-6.3-36.030 29.366-40.829 49.827-40.829 4.078 0 7.466 0.092 9.89 0.233l-16.361-93.139c-5.052-0.538-10.255-1.238-21.271-1.238-50.781 0-146.84 13.602-127.953 120.76l20.683 117.626h-48.761l14.678 83.524h48.285l15.54 88.341zM765.25 504.353l-17.184-97.379c21.19-10.824 35.706-32.804 35.706-58.194 0-33.475-25.096-60.902-57.403-64.848l-17.174-97.36c3.032-0.192 6.117-0.294 9.19-0.294 89.803 0 162.533 72.782 162.533 162.503 0 73.359-48.71 135.429-115.668 155.575zM688.762 290.566c-21.171 10.763-35.716 32.845-35.716 58.205 0 33.261 25.147 60.902 57.444 64.778l17.153 97.369c-3.053 0.192-6.157 0.335-9.21 0.335-89.732 0-162.503-72.831-162.503-162.482 0-73.391 48.731-135.499 115.689-155.645zM338.462 508.117h57.474c29.123 0 43.131-11.635 37.998-40.829l-6.289-35.319c21.413 43.464 67.861 79.323 115.506 79.323 6.249 0 12.265-1.238 12.265-1.238l-18.574-105.313c0 0-8.337 1.938-21.352 1.938-25.39 0-68.329-8.054-92.226-55.759-5.701-11.757-10.083-26.059-13.117-43.293l-20.794-118.317h-107.067z" />
<glyph unicode="&#xe925;" glyph-name="unionpay" horiz-adv-x="1313" d="M49.755 755.437c-20.423-9.22-39.653-32.444-45.254-54.877-6.004-23.625-6.004-706.114 0-727.742 5.199-18.827 28.838-46.059 46.46-53.669 10.815-4.409 118.154-5.212 607.176-5.212h594.365l17.622 9.22c9.608 5.199 23.237 17.22 29.643 26.441l12.020 17.22 1.206 360.856c0.804 253.53 0 365.667-3.202 376.482-5.615 19.632-26.037 42.453-46.059 51.271-15.224 7.209-44.062 7.611-606.774 7.611-565.942 0.013-591.578-0.388-607.203-7.598zM1259.323 741.419c7.209-3.202 18.426-12.422 24.832-20.825l11.618-14.82v-367.677c0-366.471 0-367.677-8.416-378.894-4.409-6.004-14.419-15.224-21.628-20.022l-13.214-9.22h-1191.142l-13.214 9.22c-7.611 4.811-17.22 15.224-21.628 22.835-8.416 14.017-8.416 18.025-8.416 376.482v362.465l9.608 15.625c6.004 9.608 16.015 18.025 26.037 22.835 15.625 7.209 39.653 7.611 604.375 7.611 493.844-0.013 589.969-0.818 601.186-5.615zM896.227 446.835c10.701 5.414 19.157 16.513 21.93 29.777 3.171 14.483-1.321 25.717-12.155 30.048-0.661 0-28.273 2.436-28.273 2.436l-5.284 0.542-0.264-2.3-0.264-3.113c0 0.135-13.343-59.419-13.343-59.419l-0.529-2.977h7.266c11.098 0.135 21.93 0.405 30.915 5.008zM903.098 261.811l-10.172-34.108c0 0 11.23 5.143 17.439 6.903 6.342 1.624 15.722 2.3 15.722 2.3l7.266 24.769h-30.256zM991.088 361.698c4.624 0 12.419 2.977 15.722 7.851 1.849 2.436 3.567 6.361 5.020 10.286 1.321 5.414 2.643 10.828 3.832 16.378 0.925 3.925 1.717 7.579 2.378 10.963 0.793 13.129-3.567 20.708-11.626 20.708-12.948 0-17.968-16.242-22.195-35.055-1.452-6.768-2.643-12.994-2.643-18.95 0.264-12.181 8.191-12.181 9.512-12.181zM584.831 363.593c4.624 0 8.72 3.113 12.155 8.122 5.020 6.768 8.72 22.874 9.512 27.069 4.359 19.49 3.832 31.537-6.342 31.537-12.816 0-17.968-16.242-22.195-35.597-1.585-6.632-2.775-12.858-2.643-18.813 0.264-12.317 8.191-12.317 9.512-12.317zM863.595 128.084h30.386l8.852 29.912h-30.386zM877.6 175.32c0 0 11.494 6.091 17.703 7.986 6.21 1.489 15.722 2.708 15.722 2.708l7.398 24.769h-30.518zM769.132 208.617l3.832 11.911h-44.919l-2.775-12.181h36.068c6.078 0.813 7.398-0.135 7.795 0.271zM785.251 260.863h-48.090l-4.491-19.761c4.359 1.895 9.778 3.654 15.854 4.738 4.491 0.948 32.501 0.677 32.501 0.677zM710.474 208.482v0l0.529 1.624zM703.867 184.524l-15.854-53.463c-1.452-5.279-2.245-7.851-1.189-9.204 0.529-0.948 1.717-1.895 3.303-2.436l14.797 65.239zM1241.711 748.799h-279.821c-3.303 0.677-7.135 1.082-11.626 1.082h-371.113c-3.171 0-6.21-0.135-9.38-0.542h-304.66c-45.183 0-90.235-37.763-100.804-84.052l-150.216-660.914c-10.568-46.154 17.439-83.917 62.49-83.917h322.89c3.171 0 6.21 0.135 9.38 0.542h318.003c-45.183 0-73.192 37.627-62.622 83.917l19.817 87.165h-3.303c-8.72 0-15.194 0.135-19.685 0.542-4.228 0.405-8.72 0-11.758 2.3-2.643 2.3-6.606 5.279-6.342 8.527 0.264 2.977 1.452 7.715 3.303 14.212l50.337 171.082h32.104l11.626 50.892c-5.813-0.135-11.891-0.271-21.403-0.813l-0.661 1.353c1.585 7.443 3.435 14.752 5.152 22.198l2.245 10.017c3.567 15.7 6.871 34.108 7.266 39.658 0.264 3.384 1.452 11.64-7.927 11.64-3.964 0-8.059-1.895-12.287-3.79-2.245-8.391-7.003-31.942-9.248-42.636-4.624-22.603-4.888-25.175-7.003-36.273l-1.452-1.489c-16.778 0.271-22.459 0.271-41.617-0.677l-0.925 1.624c3.303 13.399 6.342 27.069 9.512 40.334 8.059 36.41 9.91 50.35 12.155 68.893l1.452 1.082c18.761 2.572 23.385 3.248 43.599 7.579l1.585-2.030-3.039-11.64c3.303 2.030 6.739 4.195 10.172 6.091 9.512 4.738 20.346 6.227 26.159 6.227 4.096 0 8.323-0.542 12.023-2.166l47.958 210.875c9.512 41.688 47.034 76.474 87.329 82.97h14.665c-40.295-6.496-77.816-41.282-87.329-82.97l-50.996-224.545c2.378-8.933-0.132-20.438-4.756-41.011l-2.51-11.64c-5.284-25.311-6.078-30.048-8.984-47.372l-1.981-1.489c-1.717 0-3.303 0-4.756 0l-13.475-59.419c1.717 0.948 3.435 1.895 5.020 2.572 7.927 2.977 25.894 5.82 25.894 5.82l58.131 0.271-19.817-67.539c-3.303-11.64-7.135-19.085-9.644-22.469-2.113-3.519-4.756-6.361-9.778-9.204-5.020-2.708-9.38-4.331-13.607-4.738-3.832-0.271-9.778-0.405-17.835-0.542h-40.163l-14.533-64.291 11.626 1.218-8.455-29.371h-9.248l-19.817-87.030c-10.568-46.154 17.307-83.917 62.622-83.917h322.626c0.925 0 1.981 0 2.907 0.135 40.163 6.632 77.552 41.282 86.932 82.699l150.348 660.914c10.436 46.29-17.571 84.052-62.754 84.052zM280.436 352.63c-14.401-9.069-35.672-13.942-58.395-13.942-17.571 0-48.751 2.843-59.716 22.469-3.435 6.227-5.152 13.535-5.152 22.333l3.964 30.183 2.113 9.339 23.913 108.686c0 0 1.189 6.091 1.452 7.038 0.529-0.677 8.587-1.082 54.431-0.677-0.132-0.405-0.264-0.677-0.396-1.353-4.228-12.722-27.744-109.228-27.744-109.228-0.132-0.135-4.491-28.83-4.491-28.83l0.264-4.872c1.452-14.212 10.042-21.792 24.705-21.792 9.116 0 17.043 2.843 23.913 8.527 11.891 9.746 15.326 25.040 20.082 46.559 0.132 0 22.459 105.978 23.781 111.663 3.171-0.677 12.948-1.082 46.108-0.677-0.132-0.405-0.264-0.677-0.396-1.353-4.096-12.994-28.405-113.288-28.405-113.288l-2.775-10.693c-5.548-21.25-12.155-44.936-37.256-60.096zM450.732 400.273l-2.643-11.64c-5.152-25.311-6.078-30.048-8.984-47.372l-1.849-1.489c-13.739 0.135-19.949 0.271-33.029-0.405l-76.099-334.45c-10.568-46.154 17.307-83.917 62.49-83.917h-17.571c-45.183 0-73.192 37.627-62.622 83.917l95.123 418.638c-0.925 0.271-1.981 0.405-3.303 0.405-3.964 0-8.059-1.895-12.155-3.79-2.245-8.391-6.871-31.942-9.116-42.636-4.624-22.603-5.020-25.175-7.135-36.273l-1.452-1.489c-16.646 0.271-22.459 0.271-41.749-0.677l-0.925 1.624c3.303 13.399 6.474 27.069 9.512 40.334 8.059 36.41 9.91 50.35 12.287 68.893l1.452 1.082c18.761 2.572 23.385 3.248 43.599 7.579l1.717-2.030-3.039-11.64c3.435 2.030 6.739 4.195 10.304 6.091 2.245 1.082 4.491 2.030 6.871 2.843l48.222 212.093c9.512 41.688 47.034 76.474 87.329 82.97h17.571c-40.295-6.496-77.816-41.282-87.329-82.97l-47.43-208.711c0.264 0 0.661 0 0.925 0 8.852 0 18.629-2.572 22.724-13.129 3.964-9.475 1.452-21.114-3.7-43.854zM518.905 407.582c-1.849-7.986-3.7-15.836-5.416-23.687-3.7-16.783-5.152-23.009-5.945-27.476-0.925-4.195-1.057-6.632-2.51-15.294l-0.925-0.813-0.925-0.677c-9.778 0-16.118 0.271-22.195 0-6.078 0-12.023-0.405-21.139-0.813l-1.057 1.624c2.378 9.609 3.832 12.994 5.020 16.378s2.378 6.903 4.624 16.647c2.775 12.722 4.624 21.656 5.813 29.371 1.321 7.579 1.981 13.942 3.039 21.385l0.661 0.542 0.793 0.677c9.644 1.489 15.986 2.3 22.195 3.248 6.342 0.948 12.816 2.3 22.856 4.195l0.396-0.948 0.264-0.813c-1.849-7.579-3.7-15.43-5.548-23.551zM521.019 441.69c-10.834-7.715-26.952-9.339-35.936-3.925-9.116 5.548-7.927 16.107 3.039 23.687 10.834 7.715 26.82 9.339 35.936 3.79 9.116-5.279 7.662-15.836-3.039-23.551zM535.419 395.807c3.567 15.294 9.248 31.402 21.667 43.177 17.439 16.513 39.503 17.46 48.883 17.46 15.458 0 30.386-3.519 38.843-14.618 5.548-7.309 9.91-19.219 4.228-44.801-1.717-7.715-6.739-26.393-17.835-38.981-14.268-15.565-33.161-20.708-51.79-20.708-7.266 0-18.365 0.948-26.291 4.331-25.366 10.286-21.271 38.575-17.703 54.14zM662.383 204.556h-41.088l-6.342-21.385h42.144l-7.662-25.987h-42.012l-10.172-34.784c-1.189-3.79 9.91-4.466 14.004-4.466l21.007 2.977-8.455-28.694h-47.43c-3.832 0-6.739 0.542-10.834 1.489-3.964 0.948-5.681 2.843-7.53 5.685-1.717 2.843-4.359 5.143-2.51 11.234l13.607 46.154h-23.517l7.795 26.393h23.517l6.21 21.385h-23.253l7.398 25.175h102.918zM678.502 274.803l-7.795-26.259h-57.602l-6.342-5.548c-2.643-2.708-3.567-1.624-7.135-3.519-3.171-1.624-10.042-5.008-19.025-5.008h-18.497l7.398 25.311h5.548c4.756 0 7.927 0.405 9.512 1.489 1.849 1.082 3.964 3.79 6.21 8.256l10.568 19.626h42.012l-7.398-14.347zM1009.715 453.872c6.871-2.708 11.23-7.038 14.268-12.047 0.264 1.489 0.396 3.113 0.661 4.601l1.452 1.218c19.421 2.843 24.837 3.654 45.051 7.579l0.661-1.76c-3.7-15.7-7.398-31.402-10.966-47.102-7.398-33.025-10.172-49.81-13.079-66.998l-1.717-1.353c-19.553 0.135-25.234 0.135-43.334-0.677l-1.189 1.489c0.661 2.3 1.189 4.601 1.849 6.903-6.606-5.685-13.739-9.609-21.403-10.017-7.266-0.271-14.533 0.813-22.591 4.195-25.102 10.151-21.139 38.303-17.571 53.733 3.435 15.294 9.38 31.266 21.667 42.906 17.175 16.242 37.521 20.708 46.24 17.326zM786.703 339.231c1.452 5.956 31.444 132.914 31.444 132.914s12.551 59.824 12.551 59.824c0 0 1.057 4.738 1.452 7.309 5.813-0.677 19.817-0.948 54.961-0.542 0 0 13.475 0.135 13.475 0.135 27.48-0.135 51.128-0.405 63.151-17.46 4.756-6.496 6.342-14.618 6.342-23.009 0-6.227-0.925-12.722-2.113-18.002-4.888-21.656-15.854-39.522-31.576-51.568-23.385-17.595-53.243-17.595-79.665-17.595h-2.775c-1.981-1.082-3.832-3.79-3.832-3.79-0.396-0.948-6.342-26.935-6.342-26.935-0.132 0-7.135-35.463-8.455-41.416-5.416 0.405-18.101 0.405-48.618 0.135zM798.197 163.545c-1.452-5.008-2.643-8.933-6.342-12.181-3.964-3.384-8.587-7.038-19.289-7.038l-19.949-0.813-0.132-18.272c-0.264-5.279 1.057-4.738 1.849-5.548 0.925-0.948 1.717-1.353 2.643-1.624l6.342 0.271 19.025 1.082-7.795-26.799h-21.93c-15.326 0-26.688 0.405-30.386 3.384-3.7 2.3-4.228 5.414-4.096 10.422l1.452 71.6h34.747l-0.529-14.618h8.455c2.907 0 4.756 0.271 6.078 1.082 0.925 0.813 1.849 1.895 2.378 3.79l3.435 11.37h27.48zM920.405 92.216h-37.389l2.51 8.662h-76.099l7.662 25.446h7.662l39.899 135.35 7.927 27.341h38.181l-3.964-13.805c0 0 10.172 7.579 19.817 10.151 7.927 2.030 47.166 3.113 60.509 3.384v0.135h40.824l0.396-15.565c-0.132-2.572 1.981-3.79 6.739-3.79h8.323l-7.53-25.717h-22.063c-19.025-1.489-26.291 6.903-25.762 16.378l-0.396 15.16-4.096-13.67h-13.079l-39.37-133.319h10.568l-8.191-27.476h-10.568zM1089.25 210.783h-40.956l-6.474-20.844h41.088l-6.739-22.874h-44.391l-7.927-9.746h17.968l4.359-28.83c0.529-2.843 0.529-4.738 1.452-5.956 0.925-1.082 6.21-1.624 9.512-1.624h5.416l-8.323-28.017h-13.872c-2.245 0-5.284 0.135-9.644 0.405-4.228 0.271-7.135 2.843-9.91 4.195-2.51 1.218-6.342 4.466-7.135 9.746l-4.359 28.964-20.082-28.289c-6.474-8.933-15.194-15.836-29.858-15.836h-28.273l7.398 25.040h10.834c3.171 0 5.945 1.353 7.927 2.3 2.113 0.948 3.964 2.030 6.078 5.143l29.33 42.501h-38.843l6.606 22.874h44.391l6.342 20.844h-43.863l7.53 25.851h122.075zM1097.837 260.727c-5.020-9.475-14.268-16.513-28.933-16.513l-25.102 0.405 7.398 24.904h4.888c2.51 0 4.359 0.271 5.813 0.948 1.321 0.405 2.245 1.353 3.303 2.843l8.852 14.618c12.419 19.49 15.59 27.882 28.669 49.944-2.378 24.769-3.435 32.755-5.284 48.997-1.189 9.746-2.643 19.626-3.7 29.371-2.378 20.032-1.849 17.19-4.228 29.912l-0.132 0.405c0.132 0.677 0.132 1.489 0.264 2.166l1.585 1.353c19.421 2.572 19.949 3.248 40.824 7.309l1.717-1.76 2.775-55.358c0.132-1.218 0.132-1.895 0.132-3.113 11.23 25.446 10.701 18.408 24.442 51.028l0.132-0.271c0.132 0.271 0.132 0.677 0.264 0.813l1.321 1.353c18.497 2.572 22.063 3.248 42.144 7.309l1.452-1.76z" />
<glyph unicode="&#xe926;" glyph-name="verve" horiz-adv-x="1313" d="M471.134 415.248c-19.228 91.441-100.352 160.092-197.511 160.092-111.469 0-201.832-90.363-201.832-201.832s90.363-201.832 201.832-201.832c65.263 0 123.291 30.975 160.185 79.027 20.511-33.849 57.944-47.213 98.049-47.213 42.128 0 72.217 12.037 72.217 12.037l-6.019 48.144c0 0-30.089-9.035-60.179-9.035-60.182 0-63.189 45.144-63.189 45.144h135.407c6.016 36.107 0 126.379-90.27 126.379-18.075 0-34.522-3.8-48.687-10.911zM70.039 750.859h1173.203c38.683 0 70.041-31.359 70.041-70.041v-684.66c0-38.683-31.359-70.041-70.041-70.041h-1173.203c-38.683 0-70.041 31.359-70.041 70.041v684.66c0 38.683 31.359 70.041 70.041 70.041zM273.623 287.055c45.142 102.333 78.245 197.925 78.245 197.925h69.21c0 0-42.125-122.699-120.37-276.142h-54.171c-78.245 153.443-120.37 276.142-120.37 276.142h69.21c0 0 33.104-95.593 78.245-197.925zM1239.82 299.778c6.019 36.107 0 126.379-90.27 126.379-60.182 0-102.307-42.126-102.307-108.326 0-84.251 54.163-114.344 114.342-114.344 42.128 0 72.22 12.037 72.22 12.037l-6.019 48.144c0 0-30.091-9.035-60.182-9.035-60.182 0-63.189 45.144-63.189 45.144h135.407zM1146.541 384.032c39.116 0 42.125-42.126 42.125-42.126h-84.251c0 0 3.009 42.126 42.128 42.126zM774.546 371.322l9.026 48.145c0 0-69.713 21.155-126.379-18.054v-192.575h60.184l-0.005 156.466c24.071 18.054 57.173 6.018 57.173 6.018zM516.81 384.032c-39.116 0-42.125-42.126-42.125-42.126h84.251c0 0-3.009 42.126-42.128 42.126zM920.705 281.012c-18.706 45.495-33.798 92.394-45.135 140.261l-60.177-0.008c0 0 30.089-116.173 81.246-212.435h48.131c51.157 96.264 81.246 212.415 81.246 212.415h-60.177c-11.34-47.857-26.431-94.747-45.135-140.232z" />
<glyph unicode="&#xe927;" glyph-name="x" d="M185.683 822.544c-46.347-6-89.425-26.857-122.997-59.999-34.463-33.714-50.209-62.857-58.23-108.57-5.942-34.571-5.942-553.138 0-585.709 15.152-81.428 73.679-141.713 157.756-163.141 19.608-5.143 38.325-5.429 319.078-5.429 336.309 0 315.513-1.143 365.722 22.286 48.724 22.857 91.397 75.301 110.114 128.158l5.518 40.89-1.252 270.091v277.819l-1.529 26.871c-12.775 37.143-34.122 74.735-60.563 99.592-28.521 26.857-56.15 41.714-99.823 53.714-14.261 4-53.18 4.571-306.006 5.143-159.242 0.286-297.687-0.571-307.788-1.714zM376.416 594.546c1.486-1.143 32.086-39.714 67.737-85.428 35.651-46 65.955-83.714 67.143-83.714s8.913 6.857 16.637 15.428c8.021 8.286 45.455 46.857 82.889 85.714l68.331 70.285h23.174c12.478 0 22.876-0.571 22.876-1.429 0-1.429-139.039-145.427-181.821-188.57l-11.289-11.714 97.446-125.713c53.774-69.142 101.308-129.142 105.468-133.142 4.456-4.286 8.022-8.857 8.022-10 0-3.429-149.14-1.143-153.597 2.571-2.080 1.714-34.166 42-71.006 89.713s-68.925 86.856-71.005 86.856c-2.377 0-6.239-2.571-8.616-6s-13.964-16-26.144-28c-11.884-12-39.216-39.714-60.31-61.714s-48.426-50-60.607-61.999l-22.282-22.286h-21.985c-12.478 0-21.391 1.143-20.796 2.571 0.594 1.714 21.688 24.571 47.238 50.857 133.395 137.999 151.22 156.57 151.22 158.284 0 1.143-43.969 58.857-98.040 127.999-53.774 69.428-98.041 127.427-98.041 128.856 0 3.429 142.308 4 147.358 0.571zM307.878 559.118c2.14-3.143 137.276-172.856 271.801-340.568l45.861-57.428 29.962-0.857c19.873-0.571 29.657 0.286 29.657 2.286 0 1.714-11.618 17.428-25.376 35.143-22.013 27.428-125.353 157.141-252.54 316.283-19.261 24.285-36.689 45.142-38.523 46.285-1.529 1.143-16.51 2.286-33.020 2.286-23.236 0-29.351-0.857-27.822-3.429z" />
<glyph unicode="&#xe928;" glyph-name="x-no-boder" horiz-adv-x="1001" d="M1.669 862.832c0-0.25 87.545-127.854 194.535-283.582 107.074-155.728 194.618-283.582 194.702-284.083 0.083-0.417-87.378-102.567-194.368-226.832-106.99-124.349-194.618-226.415-194.702-226.749-0.167-0.417 18.611-0.668 43.063-0.584l43.48 0.25 170.5 198.207c93.804 108.993 170.917 198.124 171.334 198.124 0.501 0 62.091-89.214 136.951-198.207l136.2-198.124 148.301-0.25c125.267-0.167 148.217 0 147.883 1.001-0.25 0.584-91.217 133.195-202.129 294.598-110.912 161.487-201.462 294.014-201.295 294.515 0.334 0.751 359.61 418.697 370.126 430.631 1.168 1.335-0.918 1.419-42.479 1.335h-43.731l-161.403-187.775c-88.713-103.235-161.57-187.692-161.904-187.692-0.25 0-58.502 84.457-129.44 187.775l-128.939 187.692-148.301 0.083c-81.62 0-148.384-0.167-148.384-0.334zM568.082 351.833c171.585-245.359 312.291-446.654 312.625-447.322 0.584-0.918-10.849-1.085-67.682-1.085h-68.35l-131.443 188.025c-72.273 103.318-212.311 303.611-311.122 444.985s-180.348 258.045-181.266 259.38l-1.586 2.253h136.784l312.040-446.237z" />
</font>
</defs>
</svg>
